<?xml version="1.0" standalone="no"?>
<!DOCTYPE svg PUBLIC "-//W3C//DTD SVG 1.1//EN" "http://www.w3.org/Graphics/SVG/1.1/DTD/svg11.dtd" >
<svg xmlns="http://www.w3.org/2000/svg" xmlns:xlink="http://www.w3.org/1999/xlink" version="1.1">
<metadata>
Created by FontForge 20170924 at Fri Mar 15 23:57:35 2013
 By www-data
Copyright 2010, 2012 Adobe Systems Incorporated. All Rights Reserved.
</metadata>
<defs>
<font id="SourceSansPro-Light" horiz-adv-x="0" >
  <font-face 
    font-family="Source Sans Pro"
    font-weight="300"
    font-stretch="normal"
    units-per-em="1000"
    panose-1="2 11 4 3 3 4 3 2 2 4"
    ascent="750"
    descent="-250"
    x-height="480"
    cap-height="659"
    bbox="-169 -287 1122 939"
    underline-thickness="50"
    underline-position="-100"
    stemh="40"
    stemv="44"
    unicode-range="U+0020-FB02"
  />
<missing-glyph horiz-adv-x="632" 
d="M94 0v660h444v-660h-444zM139 84l147 256l-147 260v-516zM346 340l145 -256v516zM158 39h312l-93 164l-59 105h-4l-61 -105zM314 372h4l53 92l86 155h-284l87 -155z" />
    <glyph glyph-name="f_f" unicode="ff" horiz-adv-x="526" 
d="M554 715l-12 -36c-20 10 -40 14 -58 14c-51 0 -75 -40 -75 -109v-104h111v-38h-111v-442h-44v442h-222v-442h-44v442h-65v34l65 4v89c0 100 48 152 130 152c26 0 55 -6 81 -18l-12 -36c-24 12 -46 16 -69 16c-57 0 -86 -43 -86 -117v-86h222v107c0 95 43 144 119 144
c22 0 48 -6 70 -16z" />
    <glyph glyph-name="f_t" unicode="ft" horiz-adv-x="539" 
d="M516 42l12 -36c-28 -10 -59 -18 -79 -18c-92 0 -119 59 -119 145v309h-187v-442h-44v442h-66v34l66 4v107c0 95 43 144 119 144c22 0 48 -6 70 -16l-12 -36c-20 10 -40 14 -58 14c-51 0 -75 -40 -75 -109v-104h188l6 139h37v-139h140v-38h-140v-313
c0 -61 16 -102 82 -102c18 0 43 7 60 15z" />
    <glyph glyph-name=".notdef" horiz-adv-x="632" 
d="M94 0v660h444v-660h-444zM139 84l147 256l-147 260v-516zM346 340l145 -256v516zM158 39h312l-93 164l-59 105h-4l-61 -105zM314 372h4l53 92l86 155h-284l87 -155z" />
    <glyph glyph-name="space" unicode=" " horiz-adv-x="199" 
 />
    <glyph glyph-name="exclam" unicode="!" horiz-adv-x="259" 
d="M113 179l-6 420v71h46l-1 -71l-6 -420h-33zM87 33c0 29 21 46 43 46s42 -17 42 -46c0 -28 -20 -45 -42 -45s-43 17 -43 45z" />
    <glyph glyph-name="quotedbl" unicode="&#x22;" horiz-adv-x="360" 
d="M92 477l-8 147l-1 69h51v-69l-9 -147h-33zM234 477l-9 147l-1 69h52l-1 -69l-9 -147h-32z" />
    <glyph glyph-name="numbersign" unicode="#" horiz-adv-x="479" 
d="M93 0l26 214h-83v36h87l21 170h-88v36h92l25 194h35l-25 -194h149l26 194h34l-25 -194h82v-36h-85l-21 -170h86v-36h-91l-25 -214h-35l25 214h-149l-26 -214h-35zM158 250h150l21 170h-150z" />
    <glyph glyph-name="dollar" unicode="$" horiz-adv-x="479" 
d="M402 580l-26 -28c-38 37 -68 60 -130 60c-69 0 -116 -49 -116 -115c0 -175 289 -116 289 -344c0 -95 -65 -156 -154 -164v-99h-39v99c-69 5 -128 40 -167 77l24 31c38 -34 92 -70 161 -70c84 0 130 50 130 123c0 197 -289 142 -289 345c0 84 59 146 141 155v99h39v-99
c65 -4 103 -34 137 -70z" />
    <glyph glyph-name="percent" unicode="%" horiz-adv-x="805" 
d="M181 257c-87 0 -141 74 -141 208c0 132 54 206 141 206s141 -74 141 -206c0 -134 -54 -208 -141 -208zM181 290c62 0 102 64 102 175s-40 173 -102 173s-102 -62 -102 -173s40 -175 102 -175zM236 -12h-38l368 683h38zM624 -12c-87 0 -141 74 -141 208
c0 132 54 206 141 206s141 -74 141 -206c0 -134 -54 -208 -141 -208zM624 21c62 0 102 64 102 175s-40 173 -102 173s-102 -62 -102 -173s40 -175 102 -175z" />
    <glyph glyph-name="ampersand" unicode="&#x26;" horiz-adv-x="575" 
d="M230 26c54 0 105 29 146 71c-70 64 -140 147 -187 232c-59 -46 -108 -94 -108 -159c0 -87 68 -144 149 -144zM168 526c0 -44 14 -92 37 -140c67 48 128 95 128 163c0 43 -19 86 -72 86c-58 0 -93 -49 -93 -109zM562 27l-15 -39c-42 15 -89 42 -141 83
c-48 -49 -106 -83 -180 -83c-105 0 -190 70 -190 179c0 87 66 143 135 194c-27 56 -44 112 -44 163c0 85 56 147 136 147c71 0 110 -51 110 -120c0 -85 -77 -141 -152 -197c46 -84 115 -166 183 -226c47 59 81 133 104 217h43c-26 -90 -64 -175 -117 -242
c46 -37 90 -62 128 -76z" />
    <glyph glyph-name="quotesingle" unicode="'" horiz-adv-x="219" 
d="M92 477l-8 147l-1 69h51v-69l-9 -147h-33z" />
    <glyph glyph-name="parenleft" unicode="(" horiz-adv-x="279" 
d="M220 -175c-82 133 -132 277 -132 453s50 320 132 453l27 -16c-79 -126 -120 -279 -120 -437s41 -311 120 -437z" />
    <glyph glyph-name="parenright" unicode=")" horiz-adv-x="279" 
d="M32 -159c79 126 120 279 120 437s-41 311 -120 437l27 16c82 -133 132 -277 132 -453s-50 -320 -132 -453z" />
    <glyph glyph-name="asterisk" unicode="*" horiz-adv-x="395" 
d="M132 462l-27 20l55 88l-90 36l9 30l95 -26l7 102h32l7 -101l95 25l10 -30l-90 -36l54 -88l-27 -20l-64 83z" />
    <glyph glyph-name="plus" unicode="+" horiz-adv-x="479" 
d="M219 110v201h-185v38h185v201h41v-201h185v-38h-185v-201h-41z" />
    <glyph glyph-name="comma" unicode="," horiz-adv-x="219" 
d="M62 -155l-14 30c45 24 76 66 77 121c-4 -1 -8 -1 -12 -1c-23 0 -42 15 -42 42s21 42 43 42c30 0 51 -27 51 -71c0 -73 -43 -131 -103 -163z" />
    <glyph glyph-name="hyphen" unicode="-" horiz-adv-x="299" 
d="M40 230v39h220v-39h-220z" />
    <glyph glyph-name="period" unicode="." horiz-adv-x="219" 
d="M67 33c0 29 21 46 43 46s42 -17 42 -46c0 -28 -20 -45 -42 -45s-43 17 -43 45z" />
    <glyph glyph-name="slash" unicode="/" horiz-adv-x="357" 
d="M9 -160l305 870h38l-304 -870h-39z" />
    <glyph glyph-name="zero" unicode="0" horiz-adv-x="479" 
d="M239 -12c-122 0 -191 121 -191 334c0 212 69 329 191 329s191 -117 191 -329c0 -213 -69 -334 -191 -334zM239 26c89 0 146 101 146 296s-57 291 -146 291c-88 0 -146 -96 -146 -291s58 -296 146 -296z" />
    <glyph glyph-name="one" unicode="1" horiz-adv-x="479" 
d="M84 0v39h150v530h-114v30c52 9 93 23 123 40h36v-600h139v-39h-334z" />
    <glyph glyph-name="two" unicode="2" horiz-adv-x="479" 
d="M41 0v28c210 213 315 332 315 443c0 80 -43 142 -139 142c-58 0 -110 -36 -149 -84l-29 28c48 53 104 94 182 94c114 0 180 -71 180 -179c0 -127 -116 -249 -293 -437c35 2 72 5 107 5h218v-40h-392z" />
    <glyph glyph-name="three" unicode="3" horiz-adv-x="479" 
d="M29 78l26 31c38 -42 89 -82 177 -82c86 0 149 56 149 141c0 88 -64 148 -223 148v39c148 0 200 62 200 139c0 72 -51 119 -129 119c-59 0 -110 -31 -147 -70l-26 30c44 43 99 78 173 78c99 0 175 -56 175 -154c0 -84 -52 -134 -122 -158v-4c79 -17 145 -76 145 -166
c0 -111 -85 -181 -195 -181c-102 0 -162 47 -203 90z" />
    <glyph glyph-name="four" unicode="4" horiz-adv-x="479" 
d="M70 229h240v234c0 29 2 81 4 110h-4c-16 -27 -34 -51 -52 -80zM448 229v-38h-95v-191h-43v191h-294v26l297 422h40v-410h95z" />
    <glyph glyph-name="five" unicode="5" horiz-adv-x="479" 
d="M26 74l25 31c38 -39 88 -78 175 -78c85 0 159 69 159 172s-61 165 -156 165c-49 0 -81 -17 -119 -43l-31 19l23 299h295v-39h-255l-20 -231c33 20 67 34 114 34c108 0 195 -62 195 -202c0 -136 -101 -213 -204 -213c-102 0 -160 45 -201 86z" />
    <glyph glyph-name="six" unicode="6" horiz-adv-x="479" 
d="M262 26c74 0 129 71 129 162c0 92 -41 160 -138 160c-45 0 -103 -26 -155 -96c8 -135 60 -226 164 -226zM422 589l-27 -30c-28 35 -67 53 -108 53c-101 0 -188 -80 -190 -315c44 54 102 89 161 89c112 0 178 -69 178 -198c0 -116 -80 -200 -175 -200
c-128 0 -209 108 -209 302c0 268 112 361 235 361c60 0 102 -25 135 -62z" />
    <glyph glyph-name="seven" unicode="7" horiz-adv-x="479" 
d="M188 0c10 258 64 420 193 600h-337v39h393v-26c-153 -203 -191 -363 -201 -613h-48z" />
    <glyph glyph-name="eight" unicode="8" horiz-adv-x="479" 
d="M84 166c0 -79 67 -141 159 -141c90 0 149 58 149 131c0 98 -96 132 -195 171c-65 -38 -113 -91 -113 -161zM290 335c54 44 84 93 84 148c0 71 -48 131 -131 131c-71 0 -123 -50 -123 -119c0 -91 86 -127 170 -160zM40 164c0 86 68 148 128 180v4c-47 31 -92 79 -92 147
c0 92 74 156 167 156c109 0 173 -71 173 -167c0 -70 -54 -132 -91 -162v-4c55 -34 112 -77 112 -163c0 -93 -78 -167 -194 -167c-117 0 -203 75 -203 176z" />
    <glyph glyph-name="nine" unicode="9" horiz-adv-x="479" 
d="M226 291c45 0 103 28 155 97c-8 135 -61 225 -165 225c-73 0 -129 -70 -129 -161c0 -93 41 -161 139 -161zM56 50l27 30c28 -35 67 -53 109 -53c101 0 188 80 190 315c-44 -53 -102 -88 -162 -88c-111 0 -177 69 -177 198c0 116 80 199 175 199c127 0 208 -107 208 -301
c0 -268 -111 -362 -235 -362c-59 0 -103 25 -135 62z" />
    <glyph glyph-name="colon" unicode=":" horiz-adv-x="219" 
d="M67 415c0 29 21 46 43 46s42 -17 42 -46c0 -28 -20 -45 -42 -45s-43 17 -43 45zM67 33c0 29 21 46 43 46s42 -17 42 -46c0 -28 -20 -45 -42 -45s-43 17 -43 45z" />
    <glyph glyph-name="semicolon" unicode=";" horiz-adv-x="219" 
d="M110 370c-22 0 -43 17 -43 45c0 29 21 46 43 46s42 -17 42 -46c0 -28 -20 -45 -42 -45zM62 -155l-14 30c45 24 76 66 77 121c-4 -1 -8 -1 -12 -1c-23 0 -42 15 -42 42s21 42 43 42c30 0 51 -27 51 -71c0 -73 -43 -131 -103 -163z" />
    <glyph glyph-name="less" unicode="&#x3c;" horiz-adv-x="479" 
d="M34 310v44l411 164v-43l-232 -90l-133 -51v-4l133 -51l232 -90v-43z" />
    <glyph glyph-name="equal" unicode="=" horiz-adv-x="479" 
d="M34 413v38h411v-38h-411zM34 209v38h411v-38h-411z" />
    <glyph glyph-name="greater" unicode="&#x3e;" horiz-adv-x="479" 
d="M445 354v-44l-411 -164v43l232 90l133 51v4l-133 51l-232 90v43z" />
    <glyph glyph-name="question" unicode="?" horiz-adv-x="402" 
d="M163 179c-22 166 143 224 143 347c0 62 -35 117 -113 117c-49 0 -96 -23 -129 -64l-27 25c39 44 90 78 159 78c98 0 156 -66 156 -153c0 -136 -168 -197 -149 -350h-40zM144 33c0 29 20 46 42 46s43 -17 43 -46c0 -28 -21 -45 -43 -45s-42 17 -42 45z" />
    <glyph glyph-name="at" unicode="@" horiz-adv-x="814" 
d="M52 202c0 261 186 431 397 431c193 0 314 -127 314 -317c0 -170 -101 -260 -184 -260c-53 0 -92 24 -97 76h-2c-35 -39 -76 -70 -122 -70c-62 0 -114 46 -114 136c0 97 68 225 186 225c36 0 63 -16 83 -48h2l9 40h34l-36 -189c-23 -91 -1 -135 60 -135
c64 0 143 81 143 222c0 172 -106 285 -279 285c-183 0 -356 -155 -356 -393c0 -195 122 -315 301 -315c66 0 120 19 168 48l16 -30c-57 -36 -119 -54 -187 -54c-193 0 -336 128 -336 348zM284 201c0 -76 35 -103 80 -103c32 0 68 21 108 67l31 173c-24 37 -44 49 -74 49
c-90 0 -145 -102 -145 -186z" />
    <glyph glyph-name="A" unicode="A" horiz-adv-x="519" 
d="M142 265h234l-42 123c-26 78 -50 147 -73 228h-4c-23 -81 -46 -150 -73 -228zM466 0l-77 226h-261l-77 -226h-47l233 659h46l232 -659h-49z" />
    <glyph glyph-name="B" unicode="B" horiz-adv-x="571" 
d="M94 0v659h178c132 0 217 -50 217 -160c0 -69 -39 -124 -117 -144v-4c97 -14 158 -68 158 -159c0 -127 -96 -192 -245 -192h-191zM140 369h113c136 0 190 44 190 131c0 85 -63 121 -184 121h-119v-252zM140 38h133c131 0 211 48 211 154c0 94 -77 140 -211 140h-133v-294z
" />
    <glyph glyph-name="C" unicode="C" horiz-adv-x="557" 
d="M51 331c0 209 114 340 282 340c77 0 136 -38 171 -79l-27 -30c-36 40 -84 67 -144 67c-144 0 -234 -115 -234 -298s89 -301 230 -301c68 0 119 27 167 81l27 -29c-50 -58 -110 -94 -196 -94c-162 0 -276 133 -276 343z" />
    <glyph glyph-name="D" unicode="D" horiz-adv-x="599" 
d="M94 0v659h152c203 0 300 -128 300 -327c0 -200 -97 -332 -299 -332h-153zM140 39h101c179 0 257 121 257 293c0 171 -78 288 -257 288h-101v-581z" />
    <glyph glyph-name="E" unicode="E" horiz-adv-x="507" 
d="M94 0v659h360v-40h-314v-249h264v-40h-264v-290h324v-40h-370z" />
    <glyph glyph-name="F" unicode="F" horiz-adv-x="469" 
d="M94 0v659h359v-40h-313v-262h264v-40h-264v-317h-46z" />
    <glyph glyph-name="G" unicode="G" horiz-adv-x="597" 
d="M51 331c0 209 118 340 292 340c89 0 144 -42 179 -79l-27 -30c-34 37 -80 67 -152 67c-151 0 -244 -115 -244 -298s89 -301 239 -301c59 0 115 18 147 50v205h-157v39h201v-261c-41 -44 -109 -75 -195 -75c-169 0 -283 133 -283 343z" />
    <glyph glyph-name="H" unicode="H" horiz-adv-x="632" 
d="M94 0v659h46v-289h352v289h46v-659h-46v330h-352v-330h-46z" />
    <glyph glyph-name="I" unicode="I" horiz-adv-x="233" 
d="M94 0v659h46v-659h-46z" />
    <glyph glyph-name="J" unicode="J" horiz-adv-x="455" 
d="M37 85l35 23c33 -56 72 -78 127 -78c80 0 119 47 119 154v475h46v-480c0 -106 -45 -191 -164 -191c-74 0 -129 35 -163 97z" />
    <glyph glyph-name="K" unicode="K" horiz-adv-x="551" 
d="M94 0v659h46v-366h2l319 366h54l-210 -244l239 -415h-53l-217 380l-134 -153v-227h-46z" />
    <glyph glyph-name="L" unicode="L" horiz-adv-x="460" 
d="M94 0v659h46v-619h303v-40h-349z" />
    <glyph glyph-name="M" unicode="M" horiz-adv-x="699" 
d="M94 0v659h64l138 -387l52 -146h4l51 146l137 387h65v-659h-45v433c0 54 3 123 6 178h-4l-51 -145l-142 -394h-40l-142 394l-52 145h-4c2 -55 5 -124 5 -178v-433h-42z" />
    <glyph glyph-name="N" unicode="N" horiz-adv-x="629" 
d="M94 0v659h48l277 -465l75 -131h4c-3 64 -6 128 -6 192v404h43v-659h-48l-277 465l-75 131h-4c3 -63 6 -123 6 -187v-409h-43z" />
    <glyph glyph-name="O" unicode="O" horiz-adv-x="645" 
d="M323 -12c-159 0 -272 135 -272 344c0 208 113 339 272 339c158 0 271 -131 271 -339c0 -209 -113 -344 -271 -344zM323 30c133 0 223 119 223 302c0 182 -90 297 -223 297c-134 0 -224 -115 -224 -297c0 -183 90 -302 224 -302z" />
    <glyph glyph-name="P" unicode="P" horiz-adv-x="551" 
d="M94 0v659h180c147 0 234 -48 234 -184c0 -129 -88 -192 -234 -192h-134v-283h-46zM140 322h122c135 0 199 45 199 153c0 111 -65 145 -199 145h-122v-298z" />
    <glyph glyph-name="Q" unicode="Q" horiz-adv-x="645" 
d="M99 332c0 -183 89 -302 223 -302s223 119 223 302c0 182 -89 297 -223 297s-223 -115 -223 -297zM586 -104l10 -40c-17 -5 -48 -11 -81 -11c-111 0 -186 61 -219 144c-144 14 -245 146 -245 343c0 208 113 339 271 339c159 0 272 -131 272 -339
c0 -198 -101 -329 -247 -343c30 -66 90 -102 172 -102c30 0 50 4 67 9z" />
    <glyph glyph-name="R" unicode="R" horiz-adv-x="553" 
d="M140 341h130c117 0 181 47 181 144c0 99 -64 135 -181 135h-130v-279zM511 0h-53l-178 303h-140v-303h-46v659h188c131 0 217 -48 217 -174c0 -105 -66 -165 -169 -179z" />
    <glyph glyph-name="S" unicode="S" horiz-adv-x="514" 
d="M43 87l29 32c48 -54 117 -89 194 -89c100 0 164 54 164 132c0 82 -54 109 -119 138l-100 45c-57 25 -133 66 -133 164c0 95 82 162 191 162c80 0 144 -36 184 -79l-27 -31c-38 41 -91 68 -157 68c-87 0 -145 -46 -145 -118c0 -76 66 -105 114 -127l100 -44
c73 -33 138 -74 138 -175s-83 -177 -211 -177c-96 0 -170 41 -222 99z" />
    <glyph glyph-name="T" unicode="T" horiz-adv-x="517" 
d="M236 0v619h-210v40h465v-40h-209v-619h-46z" />
    <glyph glyph-name="U" unicode="U" horiz-adv-x="627" 
d="M91 253v406h46v-401c0 -175 83 -228 176 -228c95 0 179 53 179 228v401h44v-406c0 -206 -110 -265 -223 -265c-114 0 -222 59 -222 265z" />
    <glyph glyph-name="V" unicode="V" horiz-adv-x="484" 
d="M218 0l-217 659h49l122 -385c25 -80 42 -141 69 -221h4c27 80 45 141 70 221l122 385h46l-215 -659h-50z" />
    <glyph glyph-name="W" unicode="W" horiz-adv-x="763" 
d="M174 0l-150 659h49l82 -388c16 -72 31 -144 46 -215h4c15 71 33 143 50 215l104 388h46l104 -388c17 -72 35 -143 52 -215h4c15 72 29 143 44 215l82 388h46l-148 -659h-51l-120 452c-12 52 -23 97 -35 149h-4c-11 -52 -24 -97 -36 -149l-118 -452h-51z" />
    <glyph glyph-name="X" unicode="X" horiz-adv-x="475" 
d="M14 0l197 341l-184 318h50l109 -194c17 -30 31 -54 53 -90h4c19 36 32 60 49 90l108 194h47l-184 -320l198 -339h-50l-115 202c-18 33 -37 65 -60 105h-4c-21 -40 -39 -72 -57 -105l-114 -202h-47z" />
    <glyph glyph-name="Y" unicode="Y" horiz-adv-x="440" 
d="M197 0v267l-198 392h49l100 -206c23 -48 45 -94 70 -142h4c25 48 50 94 72 142l100 206h47l-198 -392v-267h-46z" />
    <glyph glyph-name="Z" unicode="Z" horiz-adv-x="531" 
d="M46 0v27l380 592h-346v40h403v-27l-379 -592h383v-40h-441z" />
    <glyph glyph-name="bracketleft" unicode="[" horiz-adv-x="279" 
d="M98 -152v860h160v-31h-125v-800h125v-29h-160z" />
    <glyph glyph-name="backslash" unicode="\" horiz-adv-x="357" 
d="M309 -160l-304 870h38l306 -870h-40z" />
    <glyph glyph-name="bracketright" unicode="]" horiz-adv-x="279" 
d="M21 -123h125v800h-125v31h160v-860h-160v29z" />
    <glyph glyph-name="asciicircum" unicode="^" horiz-adv-x="479" 
d="M66 290l150 380h46l151 -380h-43l-77 203l-52 133h-4l-51 -133l-77 -203h-43z" />
    <glyph glyph-name="underscore" unicode="_" horiz-adv-x="500" 
d="M12 -79h476v-38h-476v38z" />
    <glyph glyph-name="grave" unicode="`" horiz-adv-x="535" 
d="M285 572l-106 136h52l92 -136h-38z" />
    <glyph glyph-name="a" unicode="a" horiz-adv-x="499" 
d="M65 120c0 106 97 157 310 181c2 73 -19 152 -113 152c-65 0 -121 -32 -153 -56l-20 33c34 24 100 62 178 62c114 0 152 -82 152 -185v-307h-37l-5 62h-2c-49 -39 -107 -74 -170 -74c-76 0 -140 41 -140 132zM111 122c0 -69 46 -96 101 -96s104 27 163 78v163
c-197 -23 -264 -69 -264 -145z" />
    <glyph glyph-name="b" unicode="b" horiz-adv-x="544" 
d="M92 0v719h44v-208l-2 -94c49 41 107 75 166 75c128 0 192 -96 192 -245c0 -163 -99 -259 -212 -259c-46 0 -99 22 -144 57h-2l-5 -45h-37zM136 89c53 -45 105 -62 142 -62c97 0 167 90 167 220c0 118 -42 206 -152 206c-48 0 -100 -28 -157 -79v-285z" />
    <glyph glyph-name="c" unicode="c" horiz-adv-x="449" 
d="M52 239c0 161 102 253 219 253c66 0 109 -29 141 -59l-26 -31c-31 29 -67 51 -114 51c-98 0 -174 -87 -174 -214c0 -126 69 -212 174 -212c51 0 95 25 128 55l23 -30c-41 -37 -92 -64 -153 -64c-124 0 -218 92 -218 251z" />
    <glyph glyph-name="d" unicode="d" horiz-adv-x="544" 
d="M52 239c0 155 99 253 213 253c58 0 97 -22 145 -59l-2 88v198h44v-719h-38l-4 62h-3c-39 -39 -92 -74 -156 -74c-121 0 -199 89 -199 251zM99 239c0 -127 56 -212 158 -212c53 0 100 28 151 79v285c-51 45 -93 62 -140 62c-96 0 -169 -93 -169 -214z" />
    <glyph glyph-name="e" unicode="e" horiz-adv-x="483" 
d="M52 239c0 157 102 253 209 253c114 0 184 -81 184 -222c0 -12 0 -24 -2 -36h-346c2 -121 73 -208 181 -208c52 0 93 17 129 43l18 -34c-38 -23 -81 -47 -151 -47c-123 0 -222 94 -222 251zM97 268h306c0 123 -55 186 -141 186c-82 0 -155 -71 -165 -186z" />
    <glyph glyph-name="f" unicode="f" horiz-adv-x="263" 
d="M288 715l-12 -36c-20 10 -40 14 -58 14c-51 0 -75 -40 -75 -109v-104h111v-38h-111v-442h-44v442h-66v34l66 4v107c0 95 43 144 119 144c22 0 48 -6 70 -16z" />
    <glyph glyph-name="g" unicode="g" horiz-adv-x="487" 
d="M94 -94c0 -60 58 -101 160 -101c108 0 177 61 177 121c0 53 -39 73 -111 73h-103c-10 0 -35 2 -60 8c-44 -30 -63 -67 -63 -101zM52 -98c0 42 27 84 71 116v4c-24 14 -42 40 -42 77c0 43 31 73 52 88v4c-30 26 -60 74 -60 132c0 99 75 169 169 169c26 0 48 -6 63 -12h163
v-37h-112c31 -27 53 -70 53 -121c0 -98 -73 -169 -167 -169c-27 0 -58 7 -80 20c-21 -17 -39 -37 -39 -69c0 -35 20 -63 92 -63h103c108 0 158 -34 158 -110c0 -83 -89 -162 -227 -162c-121 0 -197 52 -197 133zM242 188c66 0 124 54 124 135s-56 133 -124 133
s-125 -51 -125 -133c0 -81 58 -135 125 -135z" />
    <glyph glyph-name="h" unicode="h" horiz-adv-x="528" 
d="M92 0v719h44v-208v-106c50 50 100 87 166 87c99 0 145 -60 145 -184v-308h-44v302c0 102 -32 150 -110 150c-57 0 -98 -30 -157 -90v-362h-44z" />
    <glyph glyph-name="i" unicode="i" horiz-adv-x="229" 
d="M115 596c-22 0 -40 16 -40 39c0 25 18 40 40 40s40 -15 40 -40c0 -23 -18 -39 -40 -39zM92 0v480h44v-480h-44z" />
    <glyph glyph-name="j" unicode="j" horiz-adv-x="229" 
d="M92 -86v566h45v-569c0 -94 -34 -140 -108 -140c-23 0 -47 6 -62 12l11 36c12 -4 31 -10 50 -10c54 0 64 44 64 105zM115 596c-21 0 -40 16 -40 39c0 25 19 40 40 40c22 0 41 -15 41 -40c0 -23 -19 -39 -41 -39z" />
    <glyph glyph-name="k" unicode="k" horiz-adv-x="464" 
d="M92 0v719h44v-530h2l237 291h51l-156 -190l182 -290h-49l-159 257l-108 -126v-131h-44z" />
    <glyph glyph-name="l" unicode="l" horiz-adv-x="237" 
d="M92 64v655h44v-661c0 -21 9 -31 21 -31c4 0 8 0 18 2l8 -36c-9 -3 -18 -5 -32 -5c-39 0 -59 24 -59 76z" />
    <glyph glyph-name="m" unicode="m" horiz-adv-x="812" 
d="M92 0v480h38l4 -74h3c43 49 98 86 151 86c77 0 116 -39 133 -98c55 60 108 98 163 98c96 0 144 -60 144 -184v-308h-45v302c0 102 -34 150 -107 150c-45 0 -91 -30 -144 -90v-362h-44v302c0 102 -34 150 -108 150c-43 0 -91 -30 -144 -90v-362h-44z" />
    <glyph glyph-name="n" unicode="n" horiz-adv-x="532" 
d="M92 0v480h38l4 -74h3c49 49 99 86 165 86c99 0 145 -60 145 -184v-308h-44v302c0 102 -32 150 -110 150c-57 0 -98 -30 -157 -90v-362h-44z" />
    <glyph glyph-name="o" unicode="o" horiz-adv-x="535" 
d="M52 239c0 161 100 253 215 253c116 0 216 -92 216 -253c0 -159 -100 -251 -216 -251c-115 0 -215 92 -215 251zM98 239c0 -126 72 -212 169 -212s170 86 170 212c0 127 -73 214 -170 214s-169 -87 -169 -214z" />
    <glyph glyph-name="p" unicode="p" horiz-adv-x="544" 
d="M136 47v-89v-175h-44v697h38l4 -60h3c47 37 104 72 163 72c128 0 192 -96 192 -245c0 -163 -99 -259 -212 -259c-45 0 -94 22 -144 59zM136 89c55 -45 105 -62 142 -62c97 0 167 90 167 220c0 118 -42 206 -152 206c-48 0 -99 -28 -157 -79v-285z" />
    <glyph glyph-name="q" unicode="q" horiz-adv-x="537" 
d="M52 239c0 155 99 253 213 253c58 0 98 -21 143 -56h2l5 44h37v-697h-44v185l2 93c-43 -39 -96 -73 -159 -73c-121 0 -199 89 -199 251zM99 239c0 -127 56 -212 158 -212c53 0 100 28 151 79v285c-51 45 -93 62 -140 62c-96 0 -169 -93 -169 -214z" />
    <glyph glyph-name="r" unicode="r" horiz-adv-x="317" 
d="M92 0v480h38l4 -89h3c32 59 79 101 136 101c18 0 32 -2 48 -10l-10 -40c-16 6 -25 8 -44 8c-43 0 -94 -33 -131 -123v-327h-44z" />
    <glyph glyph-name="s" unicode="s" horiz-adv-x="405" 
d="M32 54l26 33c41 -34 84 -61 153 -61c75 0 114 44 114 95c0 60 -62 86 -117 106c-73 26 -153 55 -153 137c0 70 55 128 155 128c51 0 102 -21 137 -50l-24 -31c-32 24 -66 43 -115 43c-74 0 -108 -43 -108 -87c0 -53 56 -76 113 -97c75 -28 157 -53 157 -147
c0 -72 -58 -135 -162 -135c-71 0 -133 30 -176 66z" />
    <glyph glyph-name="t" unicode="t" horiz-adv-x="312" 
d="M103 133v309h-75v34l76 4l6 139h38v-139h139v-38h-139v-313c0 -61 15 -102 81 -102c18 0 43 7 60 15l12 -36c-28 -10 -58 -18 -78 -18c-93 0 -120 59 -120 145z" />
    <glyph glyph-name="u" unicode="u" horiz-adv-x="529" 
d="M85 172v308h44v-302c0 -102 32 -150 109 -150c57 0 99 30 155 98v354h44v-480h-37l-5 80h-2c-47 -55 -97 -92 -163 -92c-99 0 -145 60 -145 184z" />
    <glyph glyph-name="v" unicode="v" horiz-adv-x="434" 
d="M192 0l-180 480h48l108 -301c15 -46 33 -94 48 -138h4c16 44 33 92 49 138l108 301h45l-178 -480h-52z" />
    <glyph glyph-name="w" unicode="w" horiz-adv-x="685" 
d="M166 0l-142 480h48l86 -311c12 -44 23 -85 33 -128h4c11 43 23 84 35 128l87 311h53l87 -311c12 -44 24 -85 36 -128h4c11 43 23 84 34 128l85 311h45l-138 -480h-58l-84 298c-14 46 -23 90 -37 137h-4c-11 -47 -23 -93 -38 -139l-83 -296h-53z" />
    <glyph glyph-name="x" unicode="x" horiz-adv-x="407" 
d="M14 0l163 251l-150 229h49l78 -122c16 -26 33 -53 51 -79h4c17 26 32 53 49 79l75 122h46l-149 -233l163 -247h-49l-85 131c-18 30 -37 60 -57 88h-4c-19 -28 -36 -58 -55 -88l-82 -131h-47z" />
    <glyph glyph-name="y" unicode="y" horiz-adv-x="436" 
d="M34 -170c10 -4 25 -8 39 -8c59 0 99 54 123 127l13 42l-197 489h48l116 -302c15 -40 34 -92 52 -134h4c15 42 31 94 44 134l103 302h45l-190 -540c-27 -80 -75 -159 -161 -159c-18 0 -36 4 -49 10z" />
    <glyph glyph-name="z" unicode="z" horiz-adv-x="404" 
d="M27 0v24l284 418h-253v38h310v-23l-283 -418h293v-39h-351z" />
    <glyph glyph-name="braceleft" unicode="{" horiz-adv-x="279" 
d="M113 -24c0 74 8 136 8 205c0 41 -16 81 -86 81v32c70 0 86 40 86 79c0 64 -8 139 -8 207c0 99 37 128 109 128h36v-31h-33c-59 0 -75 -31 -75 -101c0 -61 6 -129 6 -192c0 -59 -11 -92 -51 -104v-4c40 -12 51 -47 51 -104c0 -72 -6 -127 -6 -192c0 -70 16 -103 75 -103
h33v-29h-36c-72 0 -109 27 -109 128z" />
    <glyph glyph-name="bar" unicode="|" horiz-adv-x="226" 
d="M95 -250v1000h36v-1000h-36z" />
    <glyph glyph-name="braceright" unicode="}" horiz-adv-x="279" 
d="M21 -123h31c61 0 77 33 77 103c0 65 -6 120 -6 192c0 57 12 92 51 104v4c-39 12 -51 45 -51 104c0 63 6 131 6 192c0 70 -16 101 -77 101h-31v31h34c74 0 111 -29 111 -128c0 -68 -8 -143 -8 -207c0 -39 16 -79 86 -79v-32c-70 0 -86 -40 -86 -81c0 -69 8 -131 8 -205
c0 -101 -37 -128 -111 -128h-34v29z" />
    <glyph glyph-name="asciitilde" unicode="~" horiz-adv-x="479" 
d="M69 293l-29 18c29 56 71 83 110 83c77 0 123 -90 181 -90c30 0 55 16 79 63l28 -20c-28 -54 -70 -81 -109 -81c-77 0 -123 90 -181 90c-30 0 -55 -16 -79 -63z" />
    <glyph glyph-name="uni00A0" unicode="&#xa0;" horiz-adv-x="199" 
 />
    <glyph glyph-name="exclamdown" unicode="&#xa1;" horiz-adv-x="259" 
d="M146 301l6 -420l1 -71h-46v71l6 420h33zM172 448c0 -30 -20 -47 -42 -47s-43 17 -43 47c0 27 21 44 43 44s42 -17 42 -44z" />
    <glyph glyph-name="cent" unicode="&#xa2;" horiz-adv-x="479" 
d="M255 121v381c-86 -14 -148 -86 -148 -191c0 -104 57 -177 148 -190zM412 173l23 -29c-39 -36 -88 -62 -146 -64v-108h-34v109c-113 11 -193 93 -193 230c0 138 86 219 193 230v111h34v-109c63 -2 104 -30 135 -60l-24 -28c-30 27 -66 47 -111 49v-385c49 2 91 25 123 54z
" />
    <glyph glyph-name="sterling" unicode="&#xa3;" horiz-adv-x="479" 
d="M133 40h295v-40h-371v27c74 42 106 117 106 194c0 25 -4 49 -9 72h-100v33l66 3h24c-14 50 -32 100 -32 152c0 105 65 170 170 170c69 0 114 -33 144 -71l-29 -27c-28 33 -62 59 -115 59c-82 0 -125 -58 -125 -131c0 -53 18 -100 32 -152h165v-36h-157c5 -23 8 -46 8 -72
c0 -83 -26 -133 -72 -177v-4z" />
    <glyph glyph-name="currency" unicode="&#xa4;" horiz-adv-x="479" 
d="M57 114l-27 28l66 67c-24 32 -38 73 -38 119c0 48 14 90 38 122l-66 68l27 28l66 -69c31 28 73 44 116 44s85 -16 116 -44l67 69l26 -28l-66 -68c24 -32 38 -74 38 -122c0 -46 -14 -87 -37 -119l65 -67l-26 -28l-67 68c-31 -29 -73 -45 -116 -45s-84 16 -116 45zM102 328
c0 -91 63 -154 137 -154c75 0 137 63 137 154c0 92 -62 156 -137 156c-74 0 -137 -64 -137 -156z" />
    <glyph glyph-name="yen" unicode="&#xa5;" horiz-adv-x="479" 
d="M30 639h48l94 -193c21 -44 42 -88 66 -137h4c25 49 44 93 67 137l94 193h46l-174 -336h154v-33h-168v-71h168v-34h-168v-165h-45v165h-166v34h166v71h-166v33h152z" />
    <glyph glyph-name="brokenbar" unicode="&#xa6;" horiz-adv-x="226" 
d="M95 279v471h36v-471h-36zM95 220h36v-470h-36v470z" />
    <glyph glyph-name="section" unicode="&#xa7;" horiz-adv-x="479" 
d="M312 181c48 22 75 46 75 100c0 108 -136 124 -219 178c-45 -26 -76 -53 -76 -104c0 -105 136 -119 220 -174zM381 628l-24 -31c-32 26 -65 46 -115 46c-67 0 -94 -38 -94 -76c0 -131 281 -98 281 -283c0 -66 -36 -100 -87 -128c21 -21 34 -48 34 -84
c0 -72 -66 -124 -143 -124c-69 0 -122 26 -161 63l30 28c34 -32 70 -54 131 -54s100 39 100 85c0 136 -283 100 -283 282c0 64 39 104 89 131c-20 20 -33 46 -33 81c0 57 43 117 135 117c55 0 103 -23 140 -53z" />
    <glyph glyph-name="dieresis" unicode="&#xa8;" horiz-adv-x="535" 
d="M189 598c-21 0 -37 16 -37 37c0 20 16 36 37 36c20 0 36 -16 36 -36c0 -21 -16 -37 -36 -37zM346 598c-21 0 -36 16 -36 37c0 20 15 36 36 36s37 -16 37 -36c0 -21 -16 -37 -37 -37z" />
    <glyph glyph-name="copyright" unicode="&#xa9;" horiz-adv-x="741" 
d="M51 322c0 201 147 330 320 330c172 0 319 -129 319 -330c0 -202 -147 -334 -319 -334c-173 0 -320 132 -320 334zM86 322c0 -181 131 -303 285 -303c153 0 284 122 284 303c0 180 -131 300 -284 300c-154 0 -285 -120 -285 -300zM201 322c0 116 85 187 180 187
c53 0 88 -23 120 -55l-23 -26c-31 29 -58 44 -98 44c-79 0 -136 -60 -136 -150c0 -99 53 -161 134 -161c48 0 84 22 115 50l20 -28c-36 -32 -73 -59 -137 -59c-95 0 -175 73 -175 198z" />
    <glyph glyph-name="ordfeminine" unicode="&#xaa;" horiz-adv-x="337" 
d="M139 252c-57 0 -97 34 -97 91c0 70 63 105 206 118c-1 51 -15 92 -70 92c-40 0 -84 -21 -107 -37l-15 27c26 18 74 43 126 43c77 0 103 -50 103 -126v-200h-30l-6 39h-4c-28 -24 -63 -47 -106 -47zM148 284c31 0 64 16 100 49v102c-124 -13 -167 -44 -167 -89
c0 -43 26 -62 67 -62z" />
    <glyph glyph-name="guillemotleft" unicode="&#xab;" horiz-adv-x="399" 
d="M180 72l-137 161v38l137 161l25 -21l-123 -159l123 -161zM321 72l-138 161v38l138 161l24 -21l-122 -159l122 -161z" />
    <glyph glyph-name="logicalnot" unicode="&#xac;" horiz-adv-x="479" 
d="M34 311v38h411v-239h-41v201h-370z" />
    <glyph glyph-name="uni00AD" unicode="&#xad;" horiz-adv-x="299" 
d="M40 230v39h220v-39h-220z" />
    <glyph glyph-name="registered" unicode="&#xae;" horiz-adv-x="401" 
d="M200 324c-99 0 -182 77 -182 193c0 117 83 195 182 195c100 0 182 -78 182 -195c0 -116 -82 -193 -182 -193zM200 353c84 0 151 69 151 164c0 96 -67 167 -151 167s-151 -71 -151 -167c0 -95 67 -164 151 -164zM132 418v206h69c39 0 77 -14 77 -64c0 -25 -17 -49 -40 -56
l49 -86h-37l-39 76h-47v-76h-32zM164 521h29c30 0 51 11 51 37c0 23 -12 38 -48 38h-32v-75z" />
    <glyph glyph-name="macron" unicode="&#xaf;" horiz-adv-x="535" 
d="M154 606v36h227v-36h-227z" />
    <glyph glyph-name="degree" unicode="&#xb0;" horiz-adv-x="311" 
d="M156 447c-59 0 -114 44 -114 118c0 75 55 119 114 119s114 -44 114 -119c0 -74 -55 -118 -114 -118zM156 479c47 0 80 37 80 86c0 51 -33 88 -80 88s-80 -37 -80 -88c0 -49 33 -86 80 -86z" />
    <glyph glyph-name="plusminus" unicode="&#xb1;" horiz-adv-x="479" 
d="M219 109v201h-185v37h185v203h41v-203h185v-37h-185v-201h-41zM34 0v37h411v-37h-411z" />
    <glyph glyph-name="two.sups" unicode="&#xb2;" horiz-adv-x="362" 
d="M56 440v25c134 124 193 184 193 250c0 57 -34 93 -86 93c-36 0 -69 -28 -91 -62l-25 23c24 40 71 73 120 73c72 0 121 -41 121 -123s-69 -146 -169 -245h192v-34h-255z" />
    <glyph glyph-name="three.sups" unicode="&#xb3;" horiz-adv-x="362" 
d="M40 503l29 22c24 -38 64 -64 109 -64c49 0 91 30 91 83c0 51 -53 80 -138 80v28c78 0 122 39 122 84c0 43 -32 73 -83 73c-31 0 -64 -21 -89 -52l-25 22c28 36 68 63 118 63c65 0 118 -38 118 -103c0 -49 -32 -82 -75 -99c47 -9 91 -42 91 -97c0 -72 -58 -115 -131 -115
c-61 0 -110 35 -137 75z" />
    <glyph glyph-name="acute" unicode="&#xb4;" horiz-adv-x="535" 
d="M356 708l-107 -136h-37l91 136h53z" />
    <glyph glyph-name="uni00B5" unicode="&#xb5;" horiz-adv-x="537" 
d="M92 -200v680h44v-302c0 -102 33 -150 110 -150c57 0 98 30 155 98v354h44v-480h-38l-4 80h-3c-45 -55 -94 -91 -157 -91c-49 0 -83 11 -109 55l2 -90v-154h-44z" />
    <glyph glyph-name="paragraph" unicode="&#xb6;" horiz-adv-x="515" 
d="M373 -80v739h46v-739h-46zM291 244c-147 0 -249 58 -249 207c0 150 96 208 233 208h44v-415h-28z" />
    <glyph glyph-name="periodcentered" unicode="&#xb7;" horiz-adv-x="219" 
d="M67 322c0 29 21 46 43 46s42 -17 42 -46c0 -28 -20 -45 -42 -45s-43 17 -43 45z" />
    <glyph glyph-name="cedilla" unicode="&#xb8;" horiz-adv-x="535" 
d="M228 -74l40 76h35l-29 -56c33 -11 60 -29 60 -69c0 -52 -61 -77 -125 -85l-7 30c55 8 93 23 93 51c0 30 -28 43 -67 53z" />
    <glyph glyph-name="one.sups" unicode="&#xb9;" horiz-adv-x="362" 
d="M176 440v324h-82v27c38 8 64 20 87 39h33v-390h-38z" />
    <glyph glyph-name="ordmasculine" unicode="&#xba;" horiz-adv-x="360" 
d="M179 252c-81 0 -146 62 -146 167c0 106 65 167 146 167s146 -61 146 -167c0 -105 -65 -167 -146 -167zM179 285c64 0 107 55 107 134c0 80 -43 134 -107 134s-107 -54 -107 -134c0 -79 43 -134 107 -134z" />
    <glyph glyph-name="guillemotright" unicode="&#xbb;" horiz-adv-x="399" 
d="M54 91l122 161l-122 159l24 21l138 -161v-38l-138 -161zM195 91l122 161l-122 159l24 21l137 -161v-38l-137 -161z" />
    <glyph glyph-name="onequarter" unicode="&#xbc;" horiz-adv-x="764" 
d="M193 269h-38v324h-83v27c39 8 64 20 88 39h33v-390zM545 671h38l-367 -683h-39zM496 146h129v87l4 104h-4l-56 -83zM719 146v-32h-58v-114h-36v114h-176v21l177 255h35v-244h58z" />
    <glyph glyph-name="onehalf" unicode="&#xbd;" horiz-adv-x="786" 
d="M155 269v324h-83v27c39 8 64 20 88 39h33v-390h-38zM193 -12h-39l368 683h38zM481 0v25c133 124 193 184 193 250c0 57 -35 93 -86 93c-37 0 -70 -28 -92 -62l-25 23c25 40 71 73 120 73c72 0 122 -41 122 -123s-70 -146 -169 -245h191v-34h-254z" />
    <glyph glyph-name="threequarters" unicode="&#xbe;" horiz-adv-x="783" 
d="M81 586l-25 22c28 36 68 63 117 63c65 0 119 -38 119 -103c0 -49 -33 -82 -76 -99c47 -9 92 -42 92 -97c0 -72 -58 -115 -131 -115c-61 0 -110 35 -137 75l29 22c24 -38 64 -64 108 -64c50 0 91 30 91 83c0 51 -53 80 -137 80v28c77 0 122 39 122 84c0 43 -33 73 -84 73
c-31 0 -63 -21 -88 -52zM592 671h38l-368 -683h-38zM514 146h130v87l4 104h-4l-56 -83zM738 146v-32h-58v-114h-36v114h-177v21l177 255h36v-244h58z" />
    <glyph glyph-name="questiondown" unicode="&#xbf;" horiz-adv-x="402" 
d="M240 301c21 -166 -144 -224 -144 -347c0 -61 35 -117 114 -117c48 0 95 24 128 64l28 -25c-39 -43 -91 -78 -159 -78c-98 0 -156 66 -156 153c0 136 167 198 148 350h41zM258 448c0 -30 -20 -47 -42 -47s-42 17 -42 47c0 27 20 44 42 44s42 -17 42 -44z" />
    <glyph glyph-name="Agrave" unicode="&#xc0;" horiz-adv-x="519" 
d="M296 709h-40l-110 106h58zM142 265h234l-42 123c-26 78 -50 147 -73 228h-4c-23 -81 -46 -150 -73 -228zM466 0l-77 226h-261l-77 -226h-47l233 659h46l232 -659h-49z" />
    <glyph glyph-name="Aacute" unicode="&#xc1;" horiz-adv-x="519" 
d="M372 815l-109 -106h-41l92 106h58zM142 265h234l-42 123c-26 78 -50 147 -73 228h-4c-23 -81 -46 -150 -73 -228zM466 0l-77 226h-261l-77 -226h-47l233 659h46l232 -659h-49z" />
    <glyph glyph-name="Acircumflex" unicode="&#xc2;" horiz-adv-x="519" 
d="M257 781l-75 -72h-40l96 106h42l96 -106h-40l-75 72h-4zM142 265h234l-42 123c-26 78 -50 147 -73 228h-4c-23 -81 -46 -150 -73 -228zM466 0l-77 226h-261l-77 -226h-47l233 659h46l232 -659h-49z" />
    <glyph glyph-name="Atilde" unicode="&#xc3;" horiz-adv-x="519" 
d="M360 808h29c-3 -44 -26 -92 -71 -92c-52 0 -78 57 -118 57c-22 0 -38 -23 -42 -57h-28c3 45 26 92 71 92c52 0 77 -56 118 -56c21 0 37 22 41 56zM142 265h234l-42 123c-26 78 -50 147 -73 228h-4c-23 -81 -46 -150 -73 -228zM466 0l-77 226h-261l-77 -226h-47l233 659
h46l232 -659h-49z" />
    <glyph glyph-name="Adieresis" unicode="&#xc4;" horiz-adv-x="519" 
d="M338 725c-21 0 -37 14 -37 36c0 23 16 37 37 37s37 -14 37 -37c0 -22 -16 -36 -37 -36zM180 725c-20 0 -36 14 -36 36c0 23 16 37 36 37c21 0 37 -14 37 -37c0 -22 -16 -36 -37 -36zM142 265h234l-42 123c-26 78 -50 147 -73 228h-4c-23 -81 -46 -150 -73 -228zM466 0
l-77 226h-261l-77 -226h-47l233 659h46l232 -659h-49z" />
    <glyph glyph-name="Aring" unicode="&#xc5;" horiz-adv-x="519" 
d="M259 838c-29 0 -52 -21 -52 -56c0 -37 23 -56 52 -56c28 0 51 19 51 56c0 35 -23 56 -51 56zM259 700c-47 0 -82 32 -82 82c0 49 35 82 82 82c45 0 82 -33 82 -82c0 -50 -37 -82 -82 -82zM142 265h234l-42 123c-26 78 -50 147 -73 228h-4c-23 -81 -46 -150 -73 -228z
M466 0l-77 226h-261l-77 -226h-47l233 659h46l232 -659h-49z" />
    <glyph glyph-name="AE" unicode="&#xc6;" horiz-adv-x="802" 
d="M204 255h203v364h-4c-40 -74 -84 -152 -126 -231zM453 40h306v-40h-352v217h-224l-119 -217h-46l364 659h367v-40h-296v-249h245v-40h-245v-290z" />
    <glyph glyph-name="Ccedilla" unicode="&#xc7;" horiz-adv-x="557" 
d="M496 111l27 -29c-44 -51 -96 -85 -166 -93l-23 -43c32 -11 60 -29 60 -69c0 -52 -61 -77 -126 -85l-6 30c55 8 92 23 92 51c0 30 -28 43 -66 53l33 62c-159 3 -270 136 -270 343c0 209 114 340 282 340c77 0 136 -38 171 -79l-27 -30c-36 40 -84 67 -144 67
c-144 0 -234 -115 -234 -298s89 -301 230 -301c68 0 119 27 167 81z" />
    <glyph glyph-name="Egrave" unicode="&#xc8;" horiz-adv-x="507" 
d="M94 0v659h360v-40h-314v-249h264v-40h-264v-290h324v-40h-370zM275 709l-110 106h58l93 -106h-41z" />
    <glyph glyph-name="Eacute" unicode="&#xc9;" horiz-adv-x="507" 
d="M94 0v659h360v-40h-314v-249h264v-40h-264v-290h324v-40h-370zM391 815l-109 -106h-41l92 106h58z" />
    <glyph glyph-name="Ecircumflex" unicode="&#xca;" horiz-adv-x="507" 
d="M94 0v659h360v-40h-314v-249h264v-40h-264v-290h324v-40h-370zM201 709h-40l96 106h42l96 -106h-40l-75 72h-4z" />
    <glyph glyph-name="Edieresis" unicode="&#xcb;" horiz-adv-x="507" 
d="M94 0v659h360v-40h-314v-249h264v-40h-264v-290h324v-40h-370zM199 725c-20 0 -36 14 -36 36c0 23 16 37 36 37c21 0 37 -14 37 -37c0 -22 -16 -36 -37 -36zM357 725c-21 0 -37 14 -37 36c0 23 16 37 37 37s37 -14 37 -37c0 -22 -16 -36 -37 -36z" />
    <glyph glyph-name="Igrave" unicode="&#xcc;" horiz-adv-x="233" 
d="M94 0v659h46v-659h-46zM113 709l-109 106h57l93 -106h-41z" />
    <glyph glyph-name="Iacute" unicode="&#xcd;" horiz-adv-x="233" 
d="M94 0v659h46v-659h-46zM229 815l-109 -106h-41l93 106h57z" />
    <glyph glyph-name="Icircumflex" unicode="&#xce;" horiz-adv-x="233" 
d="M94 0v659h46v-659h-46zM40 709h-40l96 106h42l96 -106h-40l-75 72h-4z" />
    <glyph glyph-name="Idieresis" unicode="&#xcf;" horiz-adv-x="233" 
d="M94 0v659h46v-659h-46zM38 725c-21 0 -37 14 -37 36c0 23 16 37 37 37s36 -14 36 -37c0 -22 -15 -36 -36 -36zM195 725c-20 0 -36 14 -36 36c0 23 16 37 36 37c21 0 37 -14 37 -37c0 -22 -16 -36 -37 -36z" />
    <glyph glyph-name="Eth" unicode="&#xd0;" horiz-adv-x="616" 
d="M157 39h101c179 0 257 121 257 293c0 171 -78 288 -257 288h-101v-255h166v-33h-166v-293zM111 659h152c203 0 300 -128 300 -327c0 -200 -97 -332 -299 -332h-153v332h-78v31l78 2v294z" />
    <glyph glyph-name="Ntilde" unicode="&#xd1;" horiz-adv-x="629" 
d="M94 0v659h48l277 -465l75 -131h4c-3 64 -6 128 -6 192v404h43v-659h-48l-277 465l-75 131h-4c3 -63 6 -123 6 -187v-409h-43zM378 716c-53 0 -78 57 -119 57c-21 0 -37 -23 -41 -57h-29c3 45 26 92 71 92c53 0 78 -56 119 -56c21 0 37 22 41 56h29
c-3 -44 -26 -92 -71 -92z" />
    <glyph glyph-name="Ograve" unicode="&#xd2;" horiz-adv-x="645" 
d="M323 -12c-159 0 -272 135 -272 344c0 208 113 339 272 339c158 0 271 -131 271 -339c0 -209 -113 -344 -271 -344zM323 30c133 0 223 119 223 302c0 182 -90 297 -223 297c-134 0 -224 -115 -224 -297c0 -183 90 -302 224 -302zM319 709l-109 106h57l93 -106h-41z" />
    <glyph glyph-name="Oacute" unicode="&#xd3;" horiz-adv-x="645" 
d="M323 -12c-159 0 -272 135 -272 344c0 208 113 339 272 339c158 0 271 -131 271 -339c0 -209 -113 -344 -271 -344zM323 30c133 0 223 119 223 302c0 182 -90 297 -223 297c-134 0 -224 -115 -224 -297c0 -183 90 -302 224 -302zM435 815l-109 -106h-41l93 106h57z" />
    <glyph glyph-name="Ocircumflex" unicode="&#xd4;" horiz-adv-x="645" 
d="M323 -12c-159 0 -272 135 -272 344c0 208 113 339 272 339c158 0 271 -131 271 -339c0 -209 -113 -344 -271 -344zM323 30c133 0 223 119 223 302c0 182 -90 297 -223 297c-134 0 -224 -115 -224 -297c0 -183 90 -302 224 -302zM246 709h-40l96 106h42l96 -106h-40
l-75 72h-4z" />
    <glyph glyph-name="Otilde" unicode="&#xd5;" horiz-adv-x="645" 
d="M323 -12c-159 0 -272 135 -272 344c0 208 113 339 272 339c158 0 271 -131 271 -339c0 -209 -113 -344 -271 -344zM323 30c133 0 223 119 223 302c0 182 -90 297 -223 297c-134 0 -224 -115 -224 -297c0 -183 90 -302 224 -302zM381 716c-52 0 -77 57 -118 57
c-21 0 -37 -23 -42 -57h-28c3 45 26 92 71 92c52 0 78 -56 118 -56c22 0 37 22 42 56h28c-3 -44 -26 -92 -71 -92z" />
    <glyph glyph-name="Odieresis" unicode="&#xd6;" horiz-adv-x="645" 
d="M323 -12c-159 0 -272 135 -272 344c0 208 113 339 272 339c158 0 271 -131 271 -339c0 -209 -113 -344 -271 -344zM323 30c133 0 223 119 223 302c0 182 -90 297 -223 297c-134 0 -224 -115 -224 -297c0 -183 90 -302 224 -302zM244 725c-21 0 -37 14 -37 36
c0 23 16 37 37 37s36 -14 36 -37c0 -22 -15 -36 -36 -36zM401 725c-20 0 -36 14 -36 36c0 23 16 37 36 37c21 0 37 -14 37 -37c0 -22 -16 -36 -37 -36z" />
    <glyph glyph-name="multiply" unicode="&#xd7;" horiz-adv-x="479" 
d="M78 135l-27 28l162 167l-162 167l27 28l161 -169l162 169l26 -28l-161 -167l161 -167l-26 -28l-162 168z" />
    <glyph glyph-name="Oslash" unicode="&#xd8;" horiz-adv-x="645" 
d="M496 532l-324 -433c38 -44 90 -69 151 -69c133 0 223 119 223 302c0 82 -18 150 -50 200zM149 129l324 433c-38 43 -90 67 -150 67c-134 0 -224 -115 -224 -297c0 -82 18 -152 50 -203zM591 660l-67 -89c44 -58 70 -140 70 -239c0 -209 -113 -344 -271 -344
c-70 0 -132 26 -178 74l-64 -85l-29 22l68 92c-43 59 -69 142 -69 241c0 208 113 339 272 339c70 0 131 -26 178 -72l62 83z" />
    <glyph glyph-name="Ugrave" unicode="&#xd9;" horiz-adv-x="627" 
d="M91 253v406h46v-401c0 -175 83 -228 176 -228c95 0 179 53 179 228v401h44v-406c0 -206 -110 -265 -223 -265c-114 0 -222 59 -222 265zM310 709l-109 106h57l93 -106h-41z" />
    <glyph glyph-name="Uacute" unicode="&#xda;" horiz-adv-x="627" 
d="M91 253v406h46v-401c0 -175 83 -228 176 -228c95 0 179 53 179 228v401h44v-406c0 -206 -110 -265 -223 -265c-114 0 -222 59 -222 265zM426 815l-109 -106h-41l93 106h57z" />
    <glyph glyph-name="Ucircumflex" unicode="&#xdb;" horiz-adv-x="627" 
d="M91 253v406h46v-401c0 -175 83 -228 176 -228c95 0 179 53 179 228v401h44v-406c0 -206 -110 -265 -223 -265c-114 0 -222 59 -222 265zM237 709h-41l96 106h43l96 -106h-41l-74 72h-4z" />
    <glyph glyph-name="Udieresis" unicode="&#xdc;" horiz-adv-x="627" 
d="M91 253v406h46v-401c0 -175 83 -228 176 -228c95 0 179 53 179 228v401h44v-406c0 -206 -110 -265 -223 -265c-114 0 -222 59 -222 265zM235 725c-21 0 -37 14 -37 36c0 23 16 37 37 37s36 -14 36 -37c0 -22 -15 -36 -36 -36zM392 725c-20 0 -36 14 -36 36
c0 23 16 37 36 37c21 0 37 -14 37 -37c0 -22 -16 -36 -37 -36z" />
    <glyph glyph-name="Yacute" unicode="&#xdd;" horiz-adv-x="440" 
d="M197 0v267l-198 392h49l100 -206c23 -48 45 -94 70 -142h4c25 48 50 94 72 142l100 206h47l-198 -392v-267h-46zM333 815l-110 -106h-40l92 106h58z" />
    <glyph glyph-name="Thorn" unicode="&#xde;" horiz-adv-x="562" 
d="M94 0v659h46v-117h134c147 0 235 -49 235 -184c0 -129 -88 -192 -235 -192h-134v-166h-46zM140 205h122c135 0 199 45 199 153c0 110 -64 145 -199 145h-122v-298z" />
    <glyph glyph-name="germandbls" unicode="&#xdf;" horiz-adv-x="542" 
d="M92 0v532c0 123 67 197 171 197c87 0 139 -59 139 -134c0 -103 -99 -138 -99 -218c0 -115 210 -82 210 -250c0 -79 -61 -139 -146 -139c-52 0 -98 20 -136 51l22 33c38 -31 71 -46 114 -46c67 0 101 48 101 99c0 139 -209 104 -209 248c0 97 98 128 98 218
c0 58 -32 100 -95 100c-76 0 -126 -55 -126 -174v-517h-44z" />
    <glyph glyph-name="agrave" unicode="&#xe0;" horiz-adv-x="499" 
d="M65 120c0 106 97 157 310 181c2 73 -19 152 -113 152c-65 0 -121 -32 -153 -56l-20 33c34 24 100 62 178 62c114 0 152 -82 152 -185v-307h-37l-5 62h-2c-49 -39 -107 -74 -170 -74c-76 0 -140 41 -140 132zM111 122c0 -69 46 -96 101 -96s104 27 163 78v163
c-197 -23 -264 -69 -264 -145zM280 572l-106 136h53l91 -136h-38z" />
    <glyph glyph-name="aacute" unicode="&#xe1;" horiz-adv-x="499" 
d="M65 120c0 106 97 157 310 181c2 73 -19 152 -113 152c-65 0 -121 -32 -153 -56l-20 33c34 24 100 62 178 62c114 0 152 -82 152 -185v-307h-37l-5 62h-2c-49 -39 -107 -74 -170 -74c-76 0 -140 41 -140 132zM111 122c0 -69 46 -96 101 -96s104 27 163 78v163
c-197 -23 -264 -69 -264 -145zM351 708l-106 -136h-38l91 136h53z" />
    <glyph glyph-name="acircumflex" unicode="&#xe2;" horiz-adv-x="499" 
d="M65 120c0 106 97 157 310 181c2 73 -19 152 -113 152c-65 0 -121 -32 -153 -56l-20 33c34 24 100 62 178 62c114 0 152 -82 152 -185v-307h-37l-5 62h-2c-49 -39 -107 -74 -170 -74c-76 0 -140 41 -140 132zM111 122c0 -69 46 -96 101 -96s104 27 163 78v163
c-197 -23 -264 -69 -264 -145zM149 572l94 136h39l94 -136h-37l-74 99h-4l-75 -99h-37z" />
    <glyph glyph-name="atilde" unicode="&#xe3;" horiz-adv-x="499" 
d="M65 120c0 106 97 157 310 181c2 73 -19 152 -113 152c-65 0 -121 -32 -153 -56l-20 33c34 24 100 62 178 62c114 0 152 -82 152 -185v-307h-37l-5 62h-2c-49 -39 -107 -74 -170 -74c-76 0 -140 41 -140 132zM111 122c0 -69 46 -96 101 -96s104 27 163 78v163
c-197 -23 -264 -69 -264 -145zM139 581c3 43 21 89 69 89s76 -55 111 -55c21 0 33 21 37 55h30c-3 -42 -21 -89 -68 -89c-49 0 -75 55 -111 55c-22 0 -34 -20 -38 -55h-30z" />
    <glyph glyph-name="adieresis" unicode="&#xe4;" horiz-adv-x="499" 
d="M65 120c0 106 97 157 310 181c2 73 -19 152 -113 152c-65 0 -121 -32 -153 -56l-20 33c34 24 100 62 178 62c114 0 152 -82 152 -185v-307h-37l-5 62h-2c-49 -39 -107 -74 -170 -74c-76 0 -140 41 -140 132zM111 122c0 -69 46 -96 101 -96s104 27 163 78v163
c-197 -23 -264 -69 -264 -145zM184 598c-21 0 -37 16 -37 37c0 20 16 36 37 36s36 -16 36 -36c0 -21 -15 -37 -36 -37zM341 598c-20 0 -36 16 -36 37c0 20 16 36 36 36c21 0 37 -16 37 -36c0 -21 -16 -37 -37 -37z" />
    <glyph glyph-name="aring" unicode="&#xe5;" horiz-adv-x="499" 
d="M65 120c0 106 97 157 310 181c2 73 -19 152 -113 152c-65 0 -121 -32 -153 -56l-20 33c34 24 100 62 178 62c114 0 152 -82 152 -185v-307h-37l-5 62h-2c-49 -39 -107 -74 -170 -74c-76 0 -140 41 -140 132zM111 122c0 -69 46 -96 101 -96s104 27 163 78v163
c-197 -23 -264 -69 -264 -145zM263 539c-47 0 -83 35 -83 86c0 52 36 87 83 87c46 0 82 -35 82 -87c0 -51 -36 -86 -82 -86zM263 565c29 0 52 24 52 60c0 37 -23 61 -52 61c-30 0 -53 -24 -53 -61c0 -36 23 -60 53 -60z" />
    <glyph glyph-name="ae" unicode="&#xe6;" horiz-adv-x="784" 
d="M111 122c0 -69 46 -96 101 -96c52 0 124 34 179 93c-14 29 -21 76 -21 121l-1 27c-187 -23 -258 -69 -258 -145zM109 397l-20 33c34 24 100 62 172 62c78 0 124 -47 140 -120c35 73 96 120 167 120c112 0 178 -81 178 -222c0 -12 0 -24 -2 -36h-332
c0 -121 74 -207 171 -207c52 0 89 17 125 43l19 -35c-38 -23 -78 -47 -148 -47c-86 0 -137 49 -172 99c-63 -61 -142 -99 -202 -99c-76 0 -140 41 -140 131c0 107 98 158 305 182c1 73 -19 152 -113 152c-60 0 -116 -32 -148 -56zM412 268h293c0 123 -52 186 -138 186
c-79 0 -145 -76 -155 -186z" />
    <glyph glyph-name="ccedilla" unicode="&#xe7;" horiz-adv-x="449" 
d="M285 -11l-22 -43c33 -11 60 -29 60 -69c0 -52 -61 -77 -125 -85l-7 30c55 8 93 23 93 51c0 30 -28 43 -67 53l33 63c-114 9 -198 100 -198 250c0 161 102 253 219 253c66 0 109 -29 141 -59l-26 -31c-31 29 -67 51 -114 51c-98 0 -174 -87 -174 -214
c0 -126 69 -212 174 -212c51 0 95 25 128 55l23 -30c-38 -34 -84 -59 -138 -63z" />
    <glyph glyph-name="egrave" unicode="&#xe8;" horiz-adv-x="483" 
d="M52 239c0 157 102 253 209 253c114 0 184 -81 184 -222c0 -12 0 -24 -2 -36h-346c2 -121 73 -208 181 -208c52 0 93 17 129 43l18 -34c-38 -23 -81 -47 -151 -47c-123 0 -222 94 -222 251zM97 268h306c0 123 -55 186 -141 186c-82 0 -155 -71 -165 -186zM279 572
l-106 136h52l92 -136h-38z" />
    <glyph glyph-name="eacute" unicode="&#xe9;" horiz-adv-x="483" 
d="M52 239c0 157 102 253 209 253c114 0 184 -81 184 -222c0 -12 0 -24 -2 -36h-346c2 -121 73 -208 181 -208c52 0 93 17 129 43l18 -34c-38 -23 -81 -47 -151 -47c-123 0 -222 94 -222 251zM97 268h306c0 123 -55 186 -141 186c-82 0 -155 -71 -165 -186zM350 708
l-107 -136h-37l91 136h53z" />
    <glyph glyph-name="ecircumflex" unicode="&#xea;" horiz-adv-x="483" 
d="M52 239c0 157 102 253 209 253c114 0 184 -81 184 -222c0 -12 0 -24 -2 -36h-346c2 -121 73 -208 181 -208c52 0 93 17 129 43l18 -34c-38 -23 -81 -47 -151 -47c-123 0 -222 94 -222 251zM97 268h306c0 123 -55 186 -141 186c-82 0 -155 -71 -165 -186zM148 572l94 136
h39l94 -136h-37l-75 99h-4l-75 -99h-36z" />
    <glyph glyph-name="edieresis" unicode="&#xeb;" horiz-adv-x="483" 
d="M52 239c0 157 102 253 209 253c114 0 184 -81 184 -222c0 -12 0 -24 -2 -36h-346c2 -121 73 -208 181 -208c52 0 93 17 129 43l18 -34c-38 -23 -81 -47 -151 -47c-123 0 -222 94 -222 251zM97 268h306c0 123 -55 186 -141 186c-82 0 -155 -71 -165 -186zM182 598
c-20 0 -36 16 -36 37c0 20 16 36 36 36c21 0 37 -16 37 -36c0 -21 -16 -37 -37 -37zM340 598c-21 0 -37 16 -37 37c0 20 16 36 37 36s37 -16 37 -36c0 -21 -16 -37 -37 -37z" />
    <glyph glyph-name="igrave" unicode="&#xec;" horiz-adv-x="229" 
d="M92 0v480h44v-480h-44zM132 572l-106 136h52l92 -136h-38z" />
    <glyph glyph-name="iacute" unicode="&#xed;" horiz-adv-x="229" 
d="M92 0v480h44v-480h-44zM203 708l-107 -136h-37l91 136h53z" />
    <glyph glyph-name="icircumflex" unicode="&#xee;" horiz-adv-x="229" 
d="M92 0v480h44v-480h-44zM1 572l94 136h39l94 -136h-37l-75 99h-4l-75 -99h-36z" />
    <glyph glyph-name="idieresis" unicode="&#xef;" horiz-adv-x="229" 
d="M92 0v480h44v-480h-44zM36 598c-21 0 -37 16 -37 37c0 20 16 36 37 36c20 0 36 -16 36 -36c0 -21 -16 -37 -36 -37zM193 598c-21 0 -36 16 -36 37c0 20 15 36 36 36s37 -16 37 -36c0 -21 -16 -37 -37 -37z" />
    <glyph glyph-name="eth" unicode="&#xf0;" horiz-adv-x="535" 
d="M267 27c109 0 158 99 158 224c0 22 -1 42 -3 62c-51 75 -103 91 -153 91c-108 0 -165 -86 -165 -185c0 -113 74 -192 163 -192zM468 676l-133 -69c79 -81 135 -192 135 -355c0 -160 -83 -264 -203 -264c-107 0 -207 87 -207 231c0 132 84 223 207 223
c57 0 109 -25 148 -76c-18 98 -60 167 -116 222l-142 -74l-15 28l132 68c-37 32 -79 59 -123 84l22 30c49 -26 96 -57 138 -95l142 74z" />
    <glyph glyph-name="ntilde" unicode="&#xf1;" horiz-adv-x="532" 
d="M92 0v480h38l4 -74h3c49 49 99 86 165 86c99 0 145 -60 145 -184v-308h-44v302c0 102 -32 150 -110 150c-57 0 -98 -30 -157 -90v-362h-44zM159 581c3 43 21 89 69 89s76 -55 111 -55c21 0 33 21 37 55h30c-3 -42 -21 -89 -68 -89c-49 0 -75 55 -111 55
c-22 0 -34 -20 -38 -55h-30z" />
    <glyph glyph-name="ograve" unicode="&#xf2;" horiz-adv-x="535" 
d="M52 239c0 161 100 253 215 253c116 0 216 -92 216 -253c0 -159 -100 -251 -216 -251c-115 0 -215 92 -215 251zM98 239c0 -126 72 -212 169 -212s170 86 170 212c0 127 -73 214 -170 214s-169 -87 -169 -214zM285 572l-106 136h52l92 -136h-38z" />
    <glyph glyph-name="oacute" unicode="&#xf3;" horiz-adv-x="535" 
d="M52 239c0 161 100 253 215 253c116 0 216 -92 216 -253c0 -159 -100 -251 -216 -251c-115 0 -215 92 -215 251zM98 239c0 -126 72 -212 169 -212s170 86 170 212c0 127 -73 214 -170 214s-169 -87 -169 -214zM356 708l-107 -136h-37l91 136h53z" />
    <glyph glyph-name="ocircumflex" unicode="&#xf4;" horiz-adv-x="535" 
d="M52 239c0 161 100 253 215 253c116 0 216 -92 216 -253c0 -159 -100 -251 -216 -251c-115 0 -215 92 -215 251zM98 239c0 -126 72 -212 169 -212s170 86 170 212c0 127 -73 214 -170 214s-169 -87 -169 -214zM154 572l94 136h39l94 -136h-37l-75 99h-4l-75 -99h-36z" />
    <glyph glyph-name="otilde" unicode="&#xf5;" horiz-adv-x="535" 
d="M52 239c0 161 100 253 215 253c116 0 216 -92 216 -253c0 -159 -100 -251 -216 -251c-115 0 -215 92 -215 251zM98 239c0 -126 72 -212 169 -212s170 86 170 212c0 127 -73 214 -170 214s-169 -87 -169 -214zM144 581c3 43 21 89 68 89c49 0 77 -55 111 -55
c22 0 34 21 38 55h30c-3 -42 -21 -89 -69 -89s-74 55 -111 55c-21 0 -33 -20 -37 -55h-30z" />
    <glyph glyph-name="odieresis" unicode="&#xf6;" horiz-adv-x="535" 
d="M52 239c0 161 100 253 215 253c116 0 216 -92 216 -253c0 -159 -100 -251 -216 -251c-115 0 -215 92 -215 251zM98 239c0 -126 72 -212 169 -212s170 86 170 212c0 127 -73 214 -170 214s-169 -87 -169 -214zM189 598c-21 0 -37 16 -37 37c0 20 16 36 37 36
c20 0 36 -16 36 -36c0 -21 -16 -37 -36 -37zM346 598c-21 0 -36 16 -36 37c0 20 15 36 36 36s37 -16 37 -36c0 -21 -16 -37 -37 -37z" />
    <glyph glyph-name="divide" unicode="&#xf7;" horiz-adv-x="479" 
d="M239 469c-21 0 -38 16 -38 41c0 23 17 39 38 39c22 0 38 -16 38 -39c0 -25 -16 -41 -38 -41zM201 150c0 23 17 39 38 39c22 0 38 -16 38 -39c0 -25 -16 -41 -38 -41c-21 0 -38 16 -38 41zM34 311v38h411v-38h-411z" />
    <glyph glyph-name="oslash" unicode="&#xf8;" horiz-adv-x="535" 
d="M402 376l-249 -300c30 -32 70 -50 114 -50c97 0 171 86 171 212c0 55 -13 102 -36 138zM133 103l249 300c-30 33 -70 51 -115 51c-97 0 -170 -88 -170 -214c0 -54 13 -101 36 -137zM489 480l-58 -69c32 -43 52 -101 52 -172c0 -159 -100 -251 -216 -251
c-53 0 -102 19 -141 56l-54 -66l-26 21l58 70c-32 42 -52 99 -52 170c0 161 100 253 215 253c53 0 103 -19 142 -56l54 65z" />
    <glyph glyph-name="ugrave" unicode="&#xf9;" horiz-adv-x="529" 
d="M85 172v308h44v-302c0 -102 32 -150 109 -150c57 0 99 30 155 98v354h44v-480h-37l-5 80h-2c-47 -55 -97 -92 -163 -92c-99 0 -145 60 -145 184zM283 572l-107 136h53l91 -136h-37z" />
    <glyph glyph-name="uacute" unicode="&#xfa;" horiz-adv-x="529" 
d="M85 172v308h44v-302c0 -102 32 -150 109 -150c57 0 99 30 155 98v354h44v-480h-37l-5 80h-2c-47 -55 -97 -92 -163 -92c-99 0 -145 60 -145 184zM353 708l-106 -136h-38l92 136h52z" />
    <glyph glyph-name="ucircumflex" unicode="&#xfb;" horiz-adv-x="529" 
d="M85 172v308h44v-302c0 -102 32 -150 109 -150c57 0 99 30 155 98v354h44v-480h-37l-5 80h-2c-47 -55 -97 -92 -163 -92c-99 0 -145 60 -145 184zM151 572l94 136h39l94 -136h-36l-75 99h-4l-75 -99h-37z" />
    <glyph glyph-name="udieresis" unicode="&#xfc;" horiz-adv-x="529" 
d="M85 172v308h44v-302c0 -102 32 -150 109 -150c57 0 99 30 155 98v354h44v-480h-37l-5 80h-2c-47 -55 -97 -92 -163 -92c-99 0 -145 60 -145 184zM186 598c-21 0 -37 16 -37 37c0 20 16 36 37 36s37 -16 37 -36c0 -21 -16 -37 -37 -37zM344 598c-21 0 -37 16 -37 37
c0 20 16 36 37 36c20 0 36 -16 36 -36c0 -21 -16 -37 -36 -37z" />
    <glyph glyph-name="yacute" unicode="&#xfd;" horiz-adv-x="436" 
d="M34 -170c10 -4 25 -8 39 -8c59 0 99 54 123 127l13 42l-197 489h48l116 -302c15 -40 34 -92 52 -134h4c15 42 31 94 44 134l103 302h45l-190 -540c-27 -80 -75 -159 -161 -159c-18 0 -36 4 -49 10zM318 708l-107 -136h-37l91 136h53z" />
    <glyph glyph-name="thorn" unicode="&#xfe;" horiz-adv-x="544" 
d="M136 -42v-175h-44v936h44v-207v-91c48 37 104 71 163 71c129 0 193 -96 193 -245c0 -163 -99 -259 -212 -259c-46 0 -94 21 -144 58v-88zM136 89c55 -45 105 -62 142 -62c97 0 167 90 167 220c0 118 -42 206 -152 206c-48 0 -99 -28 -157 -79v-285z" />
    <glyph glyph-name="ydieresis" unicode="&#xff;" horiz-adv-x="436" 
d="M34 -170c10 -4 25 -8 39 -8c59 0 99 54 123 127l13 42l-197 489h48l116 -302c15 -40 34 -92 52 -134h4c15 42 31 94 44 134l103 302h45l-190 -540c-27 -80 -75 -159 -161 -159c-18 0 -36 4 -49 10zM150 598c-20 0 -36 16 -36 37c0 20 16 36 36 36c21 0 37 -16 37 -36
c0 -21 -16 -37 -37 -37zM308 598c-21 0 -37 16 -37 37c0 20 16 36 37 36s37 -16 37 -36c0 -21 -16 -37 -37 -37z" />
    <glyph glyph-name="Amacron" unicode="&#x100;" horiz-adv-x="519" 
d="M373 770v-36h-228v36h228zM142 265h234l-42 123c-26 78 -50 147 -73 228h-4c-23 -81 -46 -150 -73 -228zM466 0l-77 226h-261l-77 -226h-47l233 659h46l232 -659h-49z" />
    <glyph glyph-name="amacron" unicode="&#x101;" horiz-adv-x="499" 
d="M65 120c0 106 97 157 310 181c2 73 -19 152 -113 152c-65 0 -121 -32 -153 -56l-20 33c34 24 100 62 178 62c114 0 152 -82 152 -185v-307h-37l-5 62h-2c-49 -39 -107 -74 -170 -74c-76 0 -140 41 -140 132zM111 122c0 -69 46 -96 101 -96s104 27 163 78v163
c-197 -23 -264 -69 -264 -145zM149 606v36h227v-36h-227z" />
    <glyph glyph-name="Abreve" unicode="&#x102;" horiz-adv-x="519" 
d="M342 815h32c-6 -46 -39 -104 -115 -104c-75 0 -109 58 -115 104h33c6 -35 31 -72 82 -72c52 0 77 37 83 72zM142 265h234l-42 123c-26 78 -50 147 -73 228h-4c-23 -81 -46 -150 -73 -228zM466 0l-77 226h-261l-77 -226h-47l233 659h46l232 -659h-49z" />
    <glyph glyph-name="abreve" unicode="&#x103;" horiz-adv-x="499" 
d="M65 120c0 106 97 157 310 181c2 73 -19 152 -113 152c-65 0 -121 -32 -153 -56l-20 33c34 24 100 62 178 62c114 0 152 -82 152 -185v-307h-37l-5 62h-2c-49 -39 -107 -74 -170 -74c-76 0 -140 41 -140 132zM111 122c0 -69 46 -96 101 -96s104 27 163 78v163
c-197 -23 -264 -69 -264 -145zM263 576c-82 0 -114 68 -119 119h33c5 -43 32 -87 86 -87c53 0 80 44 85 87h33c-5 -51 -37 -119 -118 -119z" />
    <glyph glyph-name="Aogonek" unicode="&#x104;" horiz-adv-x="519" 
d="M142 265h234l-42 123c-26 78 -50 147 -73 228h-4c-23 -81 -46 -150 -73 -228zM534 -154l17 -27c-16 -13 -44 -24 -66 -24c-46 0 -84 27 -84 82c0 50 36 98 72 123h-7l-77 226h-261l-77 -226h-47l233 659h46l232 -659c-42 -27 -74 -75 -74 -116c0 -35 25 -52 50 -52
c18 0 30 4 43 14z" />
    <glyph glyph-name="aogonek" unicode="&#x105;" horiz-adv-x="499" 
d="M111 122c0 -69 46 -96 101 -96s104 27 163 78v163c-197 -23 -264 -69 -264 -145zM65 119c0 107 97 158 310 182c2 73 -19 152 -113 152c-65 0 -121 -32 -153 -56l-20 33c34 24 100 62 178 62c114 0 152 -82 152 -185v-307c-50 -25 -86 -73 -86 -116c0 -35 24 -52 49 -52
c18 0 30 4 43 14l16 -26c-15 -13 -43 -23 -65 -23c-46 0 -81 27 -81 81c0 51 40 100 87 129l-5 55h-2c-49 -39 -107 -74 -170 -74c-76 0 -140 41 -140 131z" />
    <glyph glyph-name="Cacute" unicode="&#x106;" horiz-adv-x="557" 
d="M51 331c0 209 114 340 282 340c77 0 136 -38 171 -79l-27 -30c-36 40 -84 67 -144 67c-144 0 -234 -115 -234 -298s89 -301 230 -301c68 0 119 27 167 81l27 -29c-50 -58 -110 -94 -196 -94c-162 0 -276 133 -276 343zM432 815l-109 -106h-41l92 106h58z" />
    <glyph glyph-name="cacute" unicode="&#x107;" horiz-adv-x="449" 
d="M52 239c0 161 102 253 219 253c66 0 109 -29 141 -59l-26 -31c-31 29 -67 51 -114 51c-98 0 -174 -87 -174 -214c0 -126 69 -212 174 -212c51 0 95 25 128 55l23 -30c-41 -37 -92 -64 -153 -64c-124 0 -218 92 -218 251zM360 708l-106 -136h-38l92 136h52z" />
    <glyph glyph-name="Ccircumflex" unicode="&#x108;" horiz-adv-x="557" 
d="M51 331c0 209 114 340 282 340c77 0 136 -38 171 -79l-27 -30c-36 40 -84 67 -144 67c-144 0 -234 -115 -234 -298s89 -301 230 -301c68 0 119 27 167 81l27 -29c-50 -58 -110 -94 -196 -94c-162 0 -276 133 -276 343zM242 709h-40l96 106h42l96 -106h-40l-75 72h-4z" />
    <glyph glyph-name="ccircumflex" unicode="&#x109;" horiz-adv-x="449" 
d="M52 239c0 161 102 253 219 253c66 0 109 -29 141 -59l-26 -31c-31 29 -67 51 -114 51c-98 0 -174 -87 -174 -214c0 -126 69 -212 174 -212c51 0 95 25 128 55l23 -30c-41 -37 -92 -64 -153 -64c-124 0 -218 92 -218 251zM158 572l94 136h39l94 -136h-36l-75 99h-4
l-75 -99h-37z" />
    <glyph glyph-name="Cdotaccent" unicode="&#x10a;" horiz-adv-x="557" 
d="M51 331c0 209 114 340 282 340c77 0 136 -38 171 -79l-27 -30c-36 40 -84 67 -144 67c-144 0 -234 -115 -234 -298s89 -301 230 -301c68 0 119 27 167 81l27 -29c-50 -58 -110 -94 -196 -94c-162 0 -276 133 -276 343zM319 721c-22 0 -40 16 -40 41c0 23 18 39 40 39
s40 -16 40 -39c0 -25 -18 -41 -40 -41z" />
    <glyph glyph-name="cdotaccent" unicode="&#x10b;" horiz-adv-x="449" 
d="M52 239c0 161 102 253 219 253c66 0 109 -29 141 -59l-26 -31c-31 29 -67 51 -114 51c-98 0 -174 -87 -174 -214c0 -126 69 -212 174 -212c51 0 95 25 128 55l23 -30c-41 -37 -92 -64 -153 -64c-124 0 -218 92 -218 251zM272 596c-22 0 -38 16 -38 41c0 23 16 39 38 39
c21 0 38 -16 38 -39c0 -25 -17 -41 -38 -41z" />
    <glyph glyph-name="Ccaron" unicode="&#x10c;" horiz-adv-x="557" 
d="M51 331c0 209 114 340 282 340c77 0 136 -38 171 -79l-27 -30c-36 40 -84 67 -144 67c-144 0 -234 -115 -234 -298s89 -301 230 -301c68 0 119 27 167 81l27 -29c-50 -58 -110 -94 -196 -94c-162 0 -276 133 -276 343zM396 815h40l-96 -106h-42l-96 106h40l75 -72h4z" />
    <glyph glyph-name="ccaron" unicode="&#x10d;" horiz-adv-x="449" 
d="M52 239c0 161 102 253 219 253c66 0 109 -29 141 -59l-26 -31c-31 29 -67 51 -114 51c-98 0 -174 -87 -174 -214c0 -126 69 -212 174 -212c51 0 95 25 128 55l23 -30c-41 -37 -92 -64 -153 -64c-124 0 -218 92 -218 251zM252 572l-94 136h37l75 -99h4l75 99h36l-94 -136
h-39z" />
    <glyph glyph-name="Dcaron" unicode="&#x10e;" horiz-adv-x="599" 
d="M94 0v659h152c203 0 300 -128 300 -327c0 -200 -97 -332 -299 -332h-153zM140 39h101c179 0 257 121 257 293c0 171 -78 288 -257 288h-101v-581zM376 815h40l-96 -106h-42l-96 106h40l75 -72h4z" />
    <glyph glyph-name="dcaron" unicode="&#x10f;" horiz-adv-x="549" 
d="M52 239c0 155 99 253 213 253c58 0 97 -22 145 -59l-2 88v198h44v-719h-38l-4 62h-3c-39 -39 -92 -74 -156 -74c-121 0 -199 89 -199 251zM99 239c0 -127 56 -212 158 -212c53 0 100 28 151 79v285c-51 45 -93 62 -140 62c-96 0 -169 -93 -169 -214zM544 548h-27l-3 206
h38v-50z" />
    <glyph glyph-name="Dcroat" unicode="&#x110;" horiz-adv-x="616" 
d="M157 39h101c179 0 257 121 257 293c0 171 -78 288 -257 288h-101v-255h166v-33h-166v-293zM111 659h152c203 0 300 -128 300 -327c0 -200 -97 -332 -299 -332h-153v332h-78v31l78 2v294z" />
    <glyph glyph-name="dcroat" unicode="&#x111;" horiz-adv-x="544" 
d="M408 106v265c-51 45 -93 62 -140 62c-96 0 -169 -89 -169 -204c0 -121 56 -202 158 -202c53 0 100 28 151 79zM527 614v-29l-75 -4v-581h-38l-5 62h-2c-39 -40 -92 -74 -156 -74c-121 0 -199 85 -199 241c0 149 99 243 213 243c58 0 97 -22 145 -59l-2 88v80h-170v33h170
v105h44v-105h75z" />
    <glyph glyph-name="Emacron" unicode="&#x112;" horiz-adv-x="507" 
d="M94 0v659h360v-40h-314v-249h264v-40h-264v-290h324v-40h-370zM164 734v36h228v-36h-228z" />
    <glyph glyph-name="emacron" unicode="&#x113;" horiz-adv-x="483" 
d="M52 239c0 157 102 253 209 253c114 0 184 -81 184 -222c0 -12 0 -24 -2 -36h-346c2 -121 73 -208 181 -208c52 0 93 17 129 43l18 -34c-38 -23 -81 -47 -151 -47c-123 0 -222 94 -222 251zM97 268h306c0 123 -55 186 -141 186c-82 0 -155 -71 -165 -186zM148 606v36h227
v-36h-227z" />
    <glyph glyph-name="Ebreve" unicode="&#x114;" horiz-adv-x="507" 
d="M94 0v659h360v-40h-314v-249h264v-40h-264v-290h324v-40h-370zM278 711c-75 0 -109 58 -115 104h33c6 -35 31 -72 82 -72c52 0 77 37 83 72h32c-6 -46 -39 -104 -115 -104z" />
    <glyph glyph-name="ebreve" unicode="&#x115;" horiz-adv-x="483" 
d="M52 239c0 157 102 253 209 253c114 0 184 -81 184 -222c0 -12 0 -24 -2 -36h-346c2 -121 73 -208 181 -208c52 0 93 17 129 43l18 -34c-38 -23 -81 -47 -151 -47c-123 0 -222 94 -222 251zM97 268h306c0 123 -55 186 -141 186c-82 0 -155 -71 -165 -186zM261 576
c-81 0 -113 68 -119 119h33c6 -43 33 -87 86 -87c54 0 80 44 86 87h33c-6 -51 -37 -119 -119 -119z" />
    <glyph glyph-name="Edotaccent" unicode="&#x116;" horiz-adv-x="507" 
d="M94 0v659h360v-40h-314v-249h264v-40h-264v-290h324v-40h-370zM278 721c-22 0 -40 16 -40 41c0 23 18 39 40 39s41 -16 41 -39c0 -25 -19 -41 -41 -41z" />
    <glyph glyph-name="edotaccent" unicode="&#x117;" horiz-adv-x="483" 
d="M52 239c0 157 102 253 209 253c114 0 184 -81 184 -222c0 -12 0 -24 -2 -36h-346c2 -121 73 -208 181 -208c52 0 93 17 129 43l18 -34c-38 -23 -81 -47 -151 -47c-123 0 -222 94 -222 251zM97 268h306c0 123 -55 186 -141 186c-82 0 -155 -71 -165 -186zM261 596
c-21 0 -38 16 -38 41c0 23 17 39 38 39c22 0 38 -16 38 -39c0 -25 -16 -41 -38 -41z" />
    <glyph glyph-name="Eogonek" unicode="&#x118;" horiz-adv-x="507" 
d="M94 0v659h360v-40h-314v-249h264v-40h-264v-290h324v-40h-2c-45 -9 -95 -58 -95 -116c0 -35 25 -52 51 -52c17 0 29 4 43 14l16 -27c-15 -13 -43 -24 -65 -24c-47 0 -84 27 -84 82c0 52 33 98 72 123h-306z" />
    <glyph glyph-name="eogonek" unicode="&#x119;" horiz-adv-x="483" 
d="M52 239c0 157 102 253 209 253c114 0 184 -81 184 -222c0 -14 0 -24 -2 -36h-346c2 -121 73 -208 181 -208c52 0 93 17 129 43l18 -34c-86 -63 -113 -107 -113 -151c0 -34 23 -52 49 -52c18 0 30 4 43 14l16 -26c-15 -13 -44 -23 -65 -23c-46 0 -81 27 -81 81
c0 50 35 95 63 119c-21 -7 -41 -9 -63 -9c-123 0 -222 94 -222 251zM97 268h306c0 123 -54 186 -141 186c-82 0 -155 -70 -165 -186z" />
    <glyph glyph-name="Ecaron" unicode="&#x11a;" horiz-adv-x="507" 
d="M94 0v659h360v-40h-314v-249h264v-40h-264v-290h324v-40h-370zM355 815h40l-96 -106h-42l-96 106h40l75 -72h4z" />
    <glyph glyph-name="ecaron" unicode="&#x11b;" horiz-adv-x="483" 
d="M52 239c0 157 102 253 209 253c114 0 184 -81 184 -222c0 -12 0 -24 -2 -36h-346c2 -121 73 -208 181 -208c52 0 93 17 129 43l18 -34c-38 -23 -81 -47 -151 -47c-123 0 -222 94 -222 251zM97 268h306c0 123 -55 186 -141 186c-82 0 -155 -71 -165 -186zM242 572l-94 136
h36l75 -99h4l75 99h37l-94 -136h-39z" />
    <glyph glyph-name="Gcircumflex" unicode="&#x11c;" horiz-adv-x="597" 
d="M51 331c0 209 118 340 292 340c89 0 144 -42 179 -79l-27 -30c-34 37 -80 67 -152 67c-151 0 -244 -115 -244 -298s89 -301 239 -301c59 0 115 18 147 50v205h-157v39h201v-261c-41 -44 -109 -75 -195 -75c-169 0 -283 133 -283 343zM265 709h-40l96 106h42l96 -106h-40
l-75 72h-4z" />
    <glyph glyph-name="gcircumflex" unicode="&#x11d;" horiz-adv-x="487" 
d="M94 -94c0 -60 58 -101 160 -101c108 0 177 61 177 121c0 53 -39 73 -111 73h-103c-10 0 -35 2 -60 8c-44 -30 -63 -67 -63 -101zM52 -98c0 42 27 84 71 116v4c-24 14 -42 40 -42 77c0 43 31 73 52 88v4c-30 26 -60 74 -60 132c0 99 75 169 169 169c26 0 48 -6 63 -12h163
v-37h-112c31 -27 53 -70 53 -121c0 -98 -73 -169 -167 -169c-27 0 -58 7 -80 20c-21 -17 -39 -37 -39 -69c0 -35 20 -63 92 -63h103c108 0 158 -34 158 -110c0 -83 -89 -162 -227 -162c-121 0 -197 52 -197 133zM242 188c66 0 124 54 124 135s-56 133 -124 133
s-125 -51 -125 -133c0 -81 58 -135 125 -135zM119 572l94 136h39l94 -136h-36l-75 99h-4l-75 -99h-37z" />
    <glyph glyph-name="Gbreve" unicode="&#x11e;" horiz-adv-x="597" 
d="M51 331c0 209 118 340 292 340c89 0 144 -42 179 -79l-27 -30c-34 37 -80 67 -152 67c-151 0 -244 -115 -244 -298s89 -301 239 -301c59 0 115 18 147 50v205h-157v39h201v-261c-41 -44 -109 -75 -195 -75c-169 0 -283 133 -283 343zM342 711c-75 0 -108 58 -115 104h33
c6 -35 31 -72 82 -72c52 0 77 37 83 72h32c-6 -46 -39 -104 -115 -104z" />
    <glyph glyph-name="gbreve" unicode="&#x11f;" horiz-adv-x="487" 
d="M94 -94c0 -60 58 -101 160 -101c108 0 177 61 177 121c0 53 -39 73 -111 73h-103c-10 0 -35 2 -60 8c-44 -30 -63 -67 -63 -101zM52 -98c0 42 27 84 71 116v4c-24 14 -42 40 -42 77c0 43 31 73 52 88v4c-30 26 -60 74 -60 132c0 99 75 169 169 169c26 0 48 -6 63 -12h163
v-37h-112c31 -27 53 -70 53 -121c0 -98 -73 -169 -167 -169c-27 0 -58 7 -80 20c-21 -17 -39 -37 -39 -69c0 -35 20 -63 92 -63h103c108 0 158 -34 158 -110c0 -83 -89 -162 -227 -162c-121 0 -197 52 -197 133zM242 188c66 0 124 54 124 135s-56 133 -124 133
s-125 -51 -125 -133c0 -81 58 -135 125 -135zM233 576c-82 0 -114 68 -119 119h33c5 -43 32 -87 86 -87c53 0 80 44 86 87h32c-5 -51 -37 -119 -118 -119z" />
    <glyph glyph-name="Gdotaccent" unicode="&#x120;" horiz-adv-x="597" 
d="M51 331c0 209 118 340 292 340c89 0 144 -42 179 -79l-27 -30c-34 37 -80 67 -152 67c-151 0 -244 -115 -244 -298s89 -301 239 -301c59 0 115 18 147 50v205h-157v39h201v-261c-41 -44 -109 -75 -195 -75c-169 0 -283 133 -283 343zM342 721c-22 0 -40 16 -40 41
c0 23 18 39 40 39s41 -16 41 -39c0 -25 -19 -41 -41 -41z" />
    <glyph glyph-name="gdotaccent" unicode="&#x121;" horiz-adv-x="487" 
d="M94 -94c0 -60 58 -101 160 -101c108 0 177 61 177 121c0 53 -39 73 -111 73h-103c-10 0 -35 2 -60 8c-44 -30 -63 -67 -63 -101zM52 -98c0 42 27 84 71 116v4c-24 14 -42 40 -42 77c0 43 31 73 52 88v4c-30 26 -60 74 -60 132c0 99 75 169 169 169c26 0 48 -6 63 -12h163
v-37h-112c31 -27 53 -70 53 -121c0 -98 -73 -169 -167 -169c-27 0 -58 7 -80 20c-21 -17 -39 -37 -39 -69c0 -35 20 -63 92 -63h103c108 0 158 -34 158 -110c0 -83 -89 -162 -227 -162c-121 0 -197 52 -197 133zM242 188c66 0 124 54 124 135s-56 133 -124 133
s-125 -51 -125 -133c0 -81 58 -135 125 -135zM233 596c-22 0 -38 16 -38 41c0 23 16 39 38 39c21 0 38 -16 38 -39c0 -25 -17 -41 -38 -41z" />
    <glyph glyph-name="uni0122" unicode="&#x122;" horiz-adv-x="597" 
d="M51 331c0 209 118 340 292 340c89 0 144 -42 179 -79l-27 -30c-34 37 -80 67 -152 67c-151 0 -244 -115 -244 -298s89 -301 239 -301c59 0 115 18 147 50v205h-157v39h201v-261c-41 -44 -109 -75 -195 -75c-169 0 -283 133 -283 343zM311 -51c55 -11 83 -32 83 -73
c0 -52 -61 -77 -125 -85l-7 30c55 8 93 23 93 50c0 31 -28 43 -56 49z" />
    <glyph glyph-name="uni0123" unicode="&#x123;" horiz-adv-x="487" 
d="M94 -94c0 -60 58 -101 160 -101c108 0 177 61 177 121c0 53 -39 73 -111 73h-103c-10 0 -35 2 -60 8c-44 -30 -63 -67 -63 -101zM52 -98c0 42 27 84 71 116v4c-24 14 -42 40 -42 77c0 43 31 73 52 88v4c-30 26 -60 74 -60 132c0 99 75 169 169 169c26 0 48 -6 63 -12h163
v-37h-112c31 -27 53 -70 53 -121c0 -98 -73 -169 -167 -169c-27 0 -58 7 -80 20c-21 -17 -39 -37 -39 -69c0 -35 20 -63 92 -63h103c108 0 158 -34 158 -110c0 -83 -89 -162 -227 -162c-121 0 -197 52 -197 133zM242 188c66 0 124 54 124 135s-56 133 -124 133
s-125 -51 -125 -133c0 -81 58 -135 125 -135zM256 539c-55 11 -83 32 -83 73c0 52 61 77 125 85l7 -30c-55 -8 -93 -23 -93 -50c0 -31 28 -43 56 -49z" />
    <glyph glyph-name="Hcircumflex" unicode="&#x124;" horiz-adv-x="632" 
d="M94 0v659h46v-289h352v289h46v-659h-46v330h-352v-330h-46zM239 709h-40l96 106h42l96 -106h-40l-75 72h-4z" />
    <glyph glyph-name="hcircumflex" unicode="&#x125;" horiz-adv-x="528" 
d="M92 0v719h44v-208v-106c50 50 100 87 166 87c99 0 145 -60 145 -184v-308h-44v302c0 102 -32 150 -110 150c-57 0 -98 -30 -157 -90v-362h-44zM39 748h-40l96 106h42l96 -106h-40l-75 73h-4z" />
    <glyph glyph-name="Hbar" unicode="&#x126;" horiz-adv-x="664" 
d="M508 370v125h-352v-125h352zM632 528v-33h-78v-495h-46v330h-352v-330h-46v495h-77v29l77 4v131h46v-131h352v131h46v-131h78z" />
    <glyph glyph-name="hbar" unicode="&#x127;" horiz-adv-x="528" 
d="M136 491v-106c50 50 100 87 166 87c99 0 145 -60 145 -184v-288h-44v282c0 102 -32 150 -110 150c-57 0 -98 -30 -157 -90v-342h-44v581h-77v29l77 4v105h44v-105h190v-33h-190v-90z" />
    <glyph glyph-name="Itilde" unicode="&#x128;" horiz-adv-x="233" 
d="M94 0v659h46v-659h-46zM175 716c-52 0 -77 57 -118 57c-21 0 -37 -23 -42 -57h-28c3 45 26 92 71 92c52 0 78 -56 118 -56c22 0 37 22 42 56h28c-3 -44 -26 -92 -71 -92z" />
    <glyph glyph-name="itilde" unicode="&#x129;" horiz-adv-x="229" 
d="M92 0v480h44v-480h-44zM-10 581c3 43 22 89 69 89c49 0 77 -55 111 -55c22 0 34 21 38 55h30c-3 -42 -21 -89 -69 -89s-75 55 -111 55c-21 0 -33 -20 -37 -55h-31z" />
    <glyph glyph-name="Imacron" unicode="&#x12a;" horiz-adv-x="233" 
d="M94 0v659h46v-659h-46zM3 734v36h227v-36h-227z" />
    <glyph glyph-name="imacron" unicode="&#x12b;" horiz-adv-x="229" 
d="M92 0v480h44v-480h-44zM1 606v36h227v-36h-227z" />
    <glyph glyph-name="uni012C" unicode="&#x12c;" horiz-adv-x="233" 
d="M94 0v659h46v-659h-46zM117 711c-76 0 -109 58 -115 104h32c6 -35 31 -72 83 -72c51 0 76 37 82 72h33c-7 -46 -40 -104 -115 -104z" />
    <glyph glyph-name="uni012D" unicode="&#x12d;" horiz-adv-x="229" 
d="M92 0v480h44v-480h-44zM115 576c-81 0 -113 68 -119 119h33c6 -43 33 -87 86 -87c54 0 80 44 86 87h33c-6 -51 -37 -119 -119 -119z" />
    <glyph glyph-name="Iogonek" unicode="&#x12e;" horiz-adv-x="233" 
d="M94 0v659h46v-659c-35 -38 -60 -72 -60 -116c0 -35 25 -52 50 -52c18 0 30 4 43 14l17 -27c-16 -13 -44 -24 -66 -24c-46 0 -84 27 -84 82c0 54 29 89 62 123h-8z" />
    <glyph glyph-name="iogonek" unicode="&#x12f;" horiz-adv-x="229" 
d="M92 0v480h44v-480c-32 -34 -61 -73 -61 -116c0 -34 24 -52 49 -52c17 0 29 4 43 14l16 -26c-15 -13 -44 -23 -65 -23c-46 0 -81 27 -81 81c0 51 33 90 62 122h-7zM113 596c-21 0 -40 16 -40 39c0 25 19 40 40 40c22 0 41 -15 41 -40c0 -23 -19 -39 -41 -39z" />
    <glyph glyph-name="Idotaccent" unicode="&#x130;" horiz-adv-x="233" 
d="M94 0v659h46v-659h-46zM117 721c-22 0 -41 16 -41 41c0 23 19 39 41 39c21 0 40 -16 40 -39c0 -25 -19 -41 -40 -41z" />
    <glyph glyph-name="dotlessi" unicode="&#x131;" horiz-adv-x="229" 
d="M92 0v480h44v-480h-44z" />
    <glyph glyph-name="Jcircumflex" unicode="&#x134;" horiz-adv-x="455" 
d="M37 85l35 23c33 -56 72 -78 127 -78c80 0 119 47 119 154v475h46v-480c0 -106 -45 -191 -164 -191c-74 0 -129 35 -163 97zM260 709h-40l96 106h42l96 -106h-40l-75 72h-4z" />
    <glyph glyph-name="jcircumflex" unicode="&#x135;" horiz-adv-x="229" 
d="M92 -86v566h45v-569c0 -94 -34 -140 -108 -140c-23 0 -47 6 -62 12l11 36c12 -4 31 -10 50 -10c54 0 64 44 64 105zM1 572l94 136h39l94 -136h-36l-75 99h-4l-75 -99h-37z" />
    <glyph glyph-name="uni0136" unicode="&#x136;" horiz-adv-x="551" 
d="M94 0v659h46v-366h2l319 366h54l-210 -244l239 -415h-53l-217 380l-134 -153v-227h-46zM293 -51c55 -11 84 -32 84 -73c0 -52 -61 -77 -126 -85l-6 30c55 8 92 23 92 50c0 31 -28 43 -56 49z" />
    <glyph glyph-name="uni0137" unicode="&#x137;" horiz-adv-x="464" 
d="M92 0v719h44v-530h2l237 291h51l-156 -190l182 -290h-49l-159 257l-108 -126v-131h-44zM232 -51c55 -11 83 -32 83 -73c0 -52 -61 -77 -125 -85l-7 30c55 8 93 23 93 50c0 31 -28 43 -56 49z" />
    <glyph glyph-name="kgreenlandic" unicode="&#x138;" horiz-adv-x="464" 
d="M92 0v480h44v-291h3l236 291h51l-156 -190l182 -290h-49l-159 257l-108 -127v-130h-44z" />
    <glyph glyph-name="Lacute" unicode="&#x139;" horiz-adv-x="460" 
d="M94 0v659h46v-619h303v-40h-349zM232 815l-110 -106h-40l92 106h58z" />
    <glyph glyph-name="lacute" unicode="&#x13a;" horiz-adv-x="237" 
d="M92 64v655h44v-661c0 -21 9 -31 21 -31c4 0 8 0 18 2l8 -36c-9 -3 -18 -5 -32 -5c-39 0 -59 24 -59 76zM220 866l-110 -106h-41l93 106h58z" />
    <glyph glyph-name="uni013B" unicode="&#x13b;" horiz-adv-x="460" 
d="M94 0v659h46v-619h303v-40h-349zM257 -51c55 -11 84 -32 84 -73c0 -52 -61 -77 -126 -85l-6 30c55 8 92 23 92 50c0 31 -28 43 -56 49z" />
    <glyph glyph-name="uni013C" unicode="&#x13c;" horiz-adv-x="237" 
d="M92 64v655h44v-661c0 -21 9 -31 21 -31c4 0 8 0 18 2l8 -36c-9 -3 -18 -5 -32 -5c-39 0 -59 24 -59 76zM133 -51c55 -11 83 -32 83 -73c0 -52 -61 -77 -125 -85l-7 30c55 8 93 23 93 50c0 31 -28 43 -56 49z" />
    <glyph glyph-name="Lcaron" unicode="&#x13d;" horiz-adv-x="460" 
d="M94 0v659h46v-619h303v-40h-349zM346 517h-27l-3 206h38v-50z" />
    <glyph glyph-name="lcaron" unicode="&#x13e;" horiz-adv-x="234" 
d="M92 64v655h44v-661c0 -21 9 -31 21 -31c4 0 8 0 18 2l8 -36c-9 -3 -18 -5 -32 -5c-39 0 -59 24 -59 76zM228 548h-27l-2 206h38v-50z" />
    <glyph glyph-name="Ldot" unicode="&#x13f;" horiz-adv-x="460" 
d="M94 0v659h46v-619h303v-40h-349zM311 323c0 29 21 46 43 46s42 -17 42 -46c0 -28 -20 -45 -42 -45s-43 17 -43 45z" />
    <glyph glyph-name="ldot" unicode="&#x140;" horiz-adv-x="308" 
d="M92 64v655h44v-661c0 -21 9 -31 21 -31c4 0 8 0 18 2l8 -36c-9 -3 -18 -5 -32 -5c-39 0 -59 24 -59 76zM225 323c0 29 20 46 42 46s43 -17 43 -46c0 -28 -21 -45 -43 -45s-42 17 -42 45z" />
    <glyph glyph-name="Lslash" unicode="&#x141;" horiz-adv-x="461" 
d="M140 40h304v-40h-350v253l-84 -43v40l84 43v366h46v-343l197 103v-40l-197 -103v-236z" />
    <glyph glyph-name="lslash" unicode="&#x142;" horiz-adv-x="239" 
d="M211 437l-73 -48v-331c0 -21 8 -31 20 -31c5 0 9 0 18 2l8 -36c-9 -3 -17 -5 -32 -5c-39 0 -59 24 -59 76v300l-65 -43v42l65 43v313h45v-287l73 48v-43z" />
    <glyph glyph-name="Nacute" unicode="&#x143;" horiz-adv-x="629" 
d="M94 0v659h48l277 -465l75 -131h4c-3 64 -6 128 -6 192v404h43v-659h-48l-277 465l-75 131h-4c3 -63 6 -123 6 -187v-409h-43zM432 815l-110 -106h-40l92 106h58z" />
    <glyph glyph-name="nacute" unicode="&#x144;" horiz-adv-x="532" 
d="M92 0v480h38l4 -74h3c49 49 99 86 165 86c99 0 145 -60 145 -184v-308h-44v302c0 102 -32 150 -110 150c-57 0 -98 -30 -157 -90v-362h-44zM371 708l-106 -136h-38l91 136h53z" />
    <glyph glyph-name="uni0145" unicode="&#x145;" horiz-adv-x="629" 
d="M94 0v659h48l277 -465l75 -131h4c-3 64 -6 128 -6 192v404h43v-659h-48l-277 465l-75 131h-4c3 -63 6 -123 6 -187v-409h-43zM290 -51c54 -11 83 -32 83 -73c0 -52 -61 -77 -125 -85l-7 30c55 8 92 23 92 50c0 31 -27 43 -56 49z" />
    <glyph glyph-name="uni0146" unicode="&#x146;" horiz-adv-x="532" 
d="M92 0v480h38l4 -74h3c49 49 99 86 165 86c99 0 145 -60 145 -184v-308h-44v302c0 102 -32 150 -110 150c-57 0 -98 -30 -157 -90v-362h-44zM246 -51c55 -11 84 -32 84 -73c0 -52 -61 -77 -126 -85l-6 30c55 8 92 23 92 50c0 31 -28 43 -56 49z" />
    <glyph glyph-name="Ncaron" unicode="&#x147;" horiz-adv-x="629" 
d="M94 0v659h48l277 -465l75 -131h4c-3 64 -6 128 -6 192v404h43v-659h-48l-277 465l-75 131h-4c3 -63 6 -123 6 -187v-409h-43zM396 815h40l-96 -106h-42l-96 106h40l75 -72h4z" />
    <glyph glyph-name="ncaron" unicode="&#x148;" horiz-adv-x="532" 
d="M92 0v480h38l4 -74h3c49 49 99 86 165 86c99 0 145 -60 145 -184v-308h-44v302c0 102 -32 150 -110 150c-57 0 -98 -30 -157 -90v-362h-44zM263 572l-94 136h37l75 -99h4l75 99h36l-94 -136h-39z" />
    <glyph glyph-name="napostrophe" unicode="&#x149;" horiz-adv-x="729" 
d="M76 477l-18 23c44 36 67 67 67 124c-2 -1 -5 -1 -8 -1c-19 0 -39 12 -39 37s16 40 39 40c27 0 45 -24 45 -67c0 -71 -32 -121 -86 -156zM324 406h2c49 49 99 86 165 86c99 0 145 -60 145 -184v-308h-44v302c0 102 -32 150 -109 150c-57 0 -99 -30 -157 -90v-362h-44v480
h37z" />
    <glyph glyph-name="Omacron" unicode="&#x14c;" horiz-adv-x="645" 
d="M323 -12c-159 0 -272 135 -272 344c0 208 113 339 272 339c158 0 271 -131 271 -339c0 -209 -113 -344 -271 -344zM323 30c133 0 223 119 223 302c0 182 -90 297 -223 297c-134 0 -224 -115 -224 -297c0 -183 90 -302 224 -302zM209 734v36h227v-36h-227z" />
    <glyph glyph-name="omacron" unicode="&#x14d;" horiz-adv-x="535" 
d="M52 239c0 161 100 253 215 253c116 0 216 -92 216 -253c0 -159 -100 -251 -216 -251c-115 0 -215 92 -215 251zM98 239c0 -126 72 -212 169 -212s170 86 170 212c0 127 -73 214 -170 214s-169 -87 -169 -214zM154 606v36h227v-36h-227z" />
    <glyph glyph-name="uni014E" unicode="&#x14e;" horiz-adv-x="645" 
d="M323 -12c-159 0 -272 135 -272 344c0 208 113 339 272 339c158 0 271 -131 271 -339c0 -209 -113 -344 -271 -344zM323 30c133 0 223 119 223 302c0 182 -90 297 -223 297c-134 0 -224 -115 -224 -297c0 -183 90 -302 224 -302zM323 711c-76 0 -109 58 -115 104h32
c6 -35 31 -72 83 -72c51 0 76 37 82 72h33c-7 -46 -40 -104 -115 -104z" />
    <glyph glyph-name="uni014F" unicode="&#x14f;" horiz-adv-x="535" 
d="M52 239c0 161 100 253 215 253c116 0 216 -92 216 -253c0 -159 -100 -251 -216 -251c-115 0 -215 92 -215 251zM98 239c0 -126 72 -212 169 -212s170 86 170 212c0 127 -73 214 -170 214s-169 -87 -169 -214zM267 576c-81 0 -113 68 -118 119h32c6 -43 33 -87 86 -87
c54 0 81 44 86 87h33c-5 -51 -37 -119 -119 -119z" />
    <glyph glyph-name="Ohungarumlaut" unicode="&#x150;" horiz-adv-x="645" 
d="M323 -12c-159 0 -272 135 -272 344c0 208 113 339 272 339c158 0 271 -131 271 -339c0 -209 -113 -344 -271 -344zM323 30c133 0 223 119 223 302c0 182 -90 297 -223 297c-134 0 -224 -115 -224 -297c0 -183 90 -302 224 -302zM267 709h-37l68 106h48zM375 709l68 106
h48l-79 -106h-37z" />
    <glyph glyph-name="ohungarumlaut" unicode="&#x151;" horiz-adv-x="535" 
d="M52 239c0 161 100 253 215 253c116 0 216 -92 216 -253c0 -159 -100 -251 -216 -251c-115 0 -215 92 -215 251zM98 239c0 -126 72 -212 169 -212s170 86 170 212c0 127 -73 214 -170 214s-169 -87 -169 -214zM185 570l72 138h46l-84 -138h-34zM319 570l71 138h46
l-84 -138h-33z" />
    <glyph glyph-name="OE" unicode="&#x152;" horiz-adv-x="826" 
d="M51 332c0 199 105 327 313 327h409v-40h-296v-249h245v-40h-245v-290h306v-40h-420c-207 0 -312 132 -312 332zM99 332c0 -172 86 -293 270 -293h62v581h-62c-184 0 -270 -116 -270 -288z" />
    <glyph glyph-name="oe" unicode="&#x153;" horiz-adv-x="848" 
d="M98 239c0 -126 71 -212 165 -212c96 0 165 86 165 212c0 127 -69 214 -165 214c-94 0 -165 -87 -165 -214zM52 239c0 161 99 253 211 253c77 0 152 -48 186 -142c35 87 102 142 179 142c113 0 183 -81 183 -222c0 -12 -1 -24 -3 -36h-337c0 -121 76 -207 173 -207
c52 0 92 17 128 43l19 -35c-38 -23 -81 -47 -152 -47c-84 0 -155 55 -189 141c-37 -93 -103 -141 -187 -141c-112 0 -211 92 -211 251zM471 268h298c0 123 -56 186 -141 186c-80 0 -147 -76 -157 -186z" />
    <glyph glyph-name="Racute" unicode="&#x154;" horiz-adv-x="553" 
d="M394 815l-110 -106h-40l92 106h58zM140 341h130c117 0 181 47 181 144c0 99 -64 135 -181 135h-130v-279zM511 0h-53l-178 303h-140v-303h-46v659h188c131 0 217 -48 217 -174c0 -105 -66 -165 -169 -179z" />
    <glyph glyph-name="racute" unicode="&#x155;" horiz-adv-x="317" 
d="M92 0v480h38l4 -89h3c32 59 79 101 136 101c18 0 32 -2 48 -10l-10 -40c-16 6 -25 8 -44 8c-43 0 -94 -33 -131 -123v-327h-44zM289 708l-107 -136h-37l91 136h53z" />
    <glyph glyph-name="uni0156" unicode="&#x156;" horiz-adv-x="553" 
d="M258 -80l12 29c55 -11 83 -32 83 -73c0 -52 -61 -77 -125 -85l-7 30c55 8 93 23 93 50c0 31 -28 43 -56 49zM140 341h130c117 0 181 47 181 144c0 99 -64 135 -181 135h-130v-279zM330 306l181 -306h-53l-178 303h-140v-303h-46v659h188c131 0 217 -48 217 -174
c0 -105 -66 -165 -169 -179z" />
    <glyph glyph-name="uni0157" unicode="&#x157;" horiz-adv-x="317" 
d="M92 0v480h38l4 -89h3c32 59 79 101 136 101c18 0 32 -2 48 -10l-10 -40c-16 6 -25 8 -44 8c-43 0 -94 -33 -131 -123v-327h-44zM86 -51c55 -11 83 -32 83 -73c0 -52 -61 -77 -125 -85l-6 30c55 8 92 23 92 50c0 31 -28 43 -56 49z" />
    <glyph glyph-name="Rcaron" unicode="&#x158;" horiz-adv-x="553" 
d="M302 709h-42l-96 106h40l75 -72h4l75 72h40zM140 341h130c117 0 181 47 181 144c0 99 -64 135 -181 135h-130v-279zM511 0h-53l-178 303h-140v-303h-46v659h188c131 0 217 -48 217 -174c0 -105 -66 -165 -169 -179z" />
    <glyph glyph-name="rcaron" unicode="&#x159;" horiz-adv-x="317" 
d="M92 0v480h38l4 -89h3c32 59 79 101 136 101c18 0 32 -2 48 -10l-10 -40c-16 6 -25 8 -44 8c-43 0 -94 -33 -131 -123v-327h-44zM181 572l-94 136h36l75 -99h4l75 99h37l-94 -136h-39z" />
    <glyph glyph-name="Sacute" unicode="&#x15a;" horiz-adv-x="514" 
d="M43 87l29 32c48 -54 117 -89 194 -89c100 0 164 54 164 132c0 82 -54 109 -119 138l-100 45c-57 25 -133 66 -133 164c0 95 82 162 191 162c80 0 144 -36 184 -79l-27 -31c-38 41 -91 68 -157 68c-87 0 -145 -46 -145 -118c0 -76 66 -105 114 -127l100 -44
c73 -33 138 -74 138 -175s-83 -177 -211 -177c-96 0 -170 41 -222 99zM381 815l-109 -106h-41l92 106h58z" />
    <glyph glyph-name="sacute" unicode="&#x15b;" horiz-adv-x="405" 
d="M32 54l26 33c41 -34 84 -61 153 -61c75 0 114 44 114 95c0 60 -62 86 -117 106c-73 26 -153 55 -153 137c0 70 55 128 155 128c51 0 102 -21 137 -50l-24 -31c-32 24 -66 43 -115 43c-74 0 -108 -43 -108 -87c0 -53 56 -76 113 -97c75 -28 157 -53 157 -147
c0 -72 -58 -135 -162 -135c-71 0 -133 30 -176 66zM299 708l-106 -136h-38l91 136h53z" />
    <glyph glyph-name="Scircumflex" unicode="&#x15c;" horiz-adv-x="514" 
d="M43 87l29 32c48 -54 117 -89 194 -89c100 0 164 54 164 132c0 82 -54 109 -119 138l-100 45c-57 25 -133 66 -133 164c0 95 82 162 191 162c80 0 144 -36 184 -79l-27 -31c-38 41 -91 68 -157 68c-87 0 -145 -46 -145 -118c0 -76 66 -105 114 -127l100 -44
c73 -33 138 -74 138 -175s-83 -177 -211 -177c-96 0 -170 41 -222 99zM191 709h-40l96 106h42l96 -106h-40l-75 72h-4z" />
    <glyph glyph-name="scircumflex" unicode="&#x15d;" horiz-adv-x="405" 
d="M32 54l26 33c41 -34 84 -61 153 -61c75 0 114 44 114 95c0 60 -62 86 -117 106c-73 26 -153 55 -153 137c0 70 55 128 155 128c51 0 102 -21 137 -50l-24 -31c-32 24 -66 43 -115 43c-74 0 -108 -43 -108 -87c0 -53 56 -76 113 -97c75 -28 157 -53 157 -147
c0 -72 -58 -135 -162 -135c-71 0 -133 30 -176 66zM97 572l94 136h39l94 -136h-36l-75 99h-4l-75 -99h-37z" />
    <glyph glyph-name="uni015E" unicode="&#x15e;" horiz-adv-x="514" 
d="M238 384l100 -44c73 -33 138 -74 138 -175c0 -96 -74 -169 -191 -176l-22 -43c32 -11 60 -29 60 -69c0 -52 -61 -77 -126 -85l-6 30c55 8 92 23 92 51c0 30 -28 43 -66 53l33 62c-89 4 -158 44 -207 99l29 32c48 -54 117 -89 194 -89c100 0 164 54 164 132
c0 82 -54 109 -119 138l-100 45c-57 25 -133 66 -133 164c0 95 82 162 191 162c80 0 144 -36 184 -79l-27 -31c-38 41 -91 68 -157 68c-87 0 -145 -46 -145 -118c0 -76 66 -105 114 -127z" />
    <glyph glyph-name="uni015F" unicode="&#x15f;" horiz-adv-x="405" 
d="M347 442l-24 -31c-32 24 -66 43 -115 43c-74 0 -108 -43 -108 -87c0 -53 56 -76 113 -97c75 -28 157 -53 157 -147c0 -66 -48 -124 -136 -134l-22 -43c32 -11 60 -29 60 -69c0 -52 -61 -77 -125 -85l-7 30c55 8 93 23 93 51c0 30 -28 43 -67 53l33 62
c-67 3 -126 32 -167 66l26 33c41 -34 84 -61 153 -61c75 0 114 44 114 95c0 60 -62 86 -117 106c-73 26 -153 55 -153 137c0 70 55 128 155 128c51 0 102 -21 137 -50z" />
    <glyph glyph-name="Scaron" unicode="&#x160;" horiz-adv-x="514" 
d="M43 87l29 32c48 -54 117 -89 194 -89c100 0 164 54 164 132c0 82 -54 109 -119 138l-100 45c-57 25 -133 66 -133 164c0 95 82 162 191 162c80 0 144 -36 184 -79l-27 -31c-38 41 -91 68 -157 68c-87 0 -145 -46 -145 -118c0 -76 66 -105 114 -127l100 -44
c73 -33 138 -74 138 -175s-83 -177 -211 -177c-96 0 -170 41 -222 99zM345 815h40l-96 -106h-42l-96 106h40l75 -72h4z" />
    <glyph glyph-name="scaron" unicode="&#x161;" horiz-adv-x="405" 
d="M32 54l26 33c41 -34 84 -61 153 -61c75 0 114 44 114 95c0 60 -62 86 -117 106c-73 26 -153 55 -153 137c0 70 55 128 155 128c51 0 102 -21 137 -50l-24 -31c-32 24 -66 43 -115 43c-74 0 -108 -43 -108 -87c0 -53 56 -76 113 -97c75 -28 157 -53 157 -147
c0 -72 -58 -135 -162 -135c-71 0 -133 30 -176 66zM191 572l-94 136h37l75 -99h4l75 99h36l-94 -136h-39z" />
    <glyph glyph-name="uni0162" unicode="&#x162;" horiz-adv-x="517" 
d="M282 0h-4l-28 -54c32 -11 60 -29 60 -69c0 -52 -61 -77 -126 -85l-6 30c55 8 92 23 92 51c0 30 -28 43 -66 53l39 74h-7v619h-210v40h465v-40h-209v-619z" />
    <glyph glyph-name="uni0163" unicode="&#x163;" horiz-adv-x="312" 
d="M222 -12l-22 -42c33 -11 60 -29 60 -69c0 -52 -61 -77 -125 -85l-7 30c55 8 93 23 93 51c0 30 -28 43 -67 53l34 65c-65 14 -85 68 -85 142v309h-75v34l76 4l6 139h38v-139h139v-38h-139v-313c0 -61 15 -102 81 -102c18 0 43 7 60 15l12 -36c-28 -10 -58 -18 -78 -18h-1z
" />
    <glyph glyph-name="Tcaron" unicode="&#x164;" horiz-adv-x="517" 
d="M236 0v619h-210v40h465v-40h-209v-619h-46zM335 815h40l-96 -106h-42l-96 106h40l75 -72h4z" />
    <glyph glyph-name="tcaron" unicode="&#x165;" horiz-adv-x="312" 
d="M103 133v309h-75v34l76 4l6 139h38v-139h139v-38h-139v-313c0 -61 15 -102 81 -102c18 0 43 7 60 15l12 -36c-28 -10 -58 -18 -78 -18c-93 0 -120 59 -120 145zM270 548h-27l-2 206h37v-50z" />
    <glyph glyph-name="Utilde" unicode="&#x168;" horiz-adv-x="627" 
d="M91 253v406h46v-401c0 -175 83 -228 176 -228c95 0 179 53 179 228v401h44v-406c0 -206 -110 -265 -223 -265c-114 0 -222 59 -222 265zM372 716c-52 0 -77 57 -118 57c-21 0 -37 -23 -42 -57h-28c3 45 26 92 71 92c52 0 78 -56 118 -56c22 0 37 22 42 56h28
c-3 -44 -26 -92 -71 -92z" />
    <glyph glyph-name="utilde" unicode="&#x169;" horiz-adv-x="529" 
d="M85 172v308h44v-302c0 -102 32 -150 109 -150c57 0 99 30 155 98v354h44v-480h-37l-5 80h-2c-47 -55 -97 -92 -163 -92c-99 0 -145 60 -145 184zM141 581c3 43 21 89 69 89s77 -55 111 -55c21 0 33 21 37 55h31c-3 -42 -21 -89 -69 -89c-49 0 -75 55 -111 55
c-22 0 -33 -20 -38 -55h-30z" />
    <glyph glyph-name="Umacron" unicode="&#x16a;" horiz-adv-x="627" 
d="M91 253v406h46v-401c0 -175 83 -228 176 -228c95 0 179 53 179 228v401h44v-406c0 -206 -110 -265 -223 -265c-114 0 -222 59 -222 265zM200 734v36h227v-36h-227z" />
    <glyph glyph-name="umacron" unicode="&#x16b;" horiz-adv-x="529" 
d="M85 172v308h44v-302c0 -102 32 -150 109 -150c57 0 99 30 155 98v354h44v-480h-37l-5 80h-2c-47 -55 -97 -92 -163 -92c-99 0 -145 60 -145 184zM147 606v36h227v-36h-227z" />
    <glyph glyph-name="Ubreve" unicode="&#x16c;" horiz-adv-x="627" 
d="M91 253v406h46v-401c0 -175 83 -228 176 -228c95 0 179 53 179 228v401h44v-406c0 -206 -110 -265 -223 -265c-114 0 -222 59 -222 265zM314 711c-76 0 -109 58 -116 104h33c6 -35 31 -72 83 -72c51 0 76 37 82 72h33c-7 -46 -40 -104 -115 -104z" />
    <glyph glyph-name="ubreve" unicode="&#x16d;" horiz-adv-x="529" 
d="M85 172v308h44v-302c0 -102 32 -150 109 -150c57 0 99 30 155 98v354h44v-480h-37l-5 80h-2c-47 -55 -97 -92 -163 -92c-99 0 -145 60 -145 184zM265 576c-82 0 -113 68 -119 119h33c6 -43 32 -87 86 -87c53 0 80 44 86 87h33c-6 -51 -38 -119 -119 -119z" />
    <glyph glyph-name="Uring" unicode="&#x16e;" horiz-adv-x="627" 
d="M91 253v406h46v-401c0 -175 83 -228 176 -228c95 0 179 53 179 228v401h44v-406c0 -206 -110 -265 -223 -265c-114 0 -222 59 -222 265zM314 700c-47 0 -83 32 -83 82c0 49 36 82 83 82c45 0 82 -33 82 -82c0 -50 -37 -82 -82 -82zM314 726c27 0 50 19 50 56
c0 35 -23 56 -50 56c-30 0 -53 -21 -53 -56c0 -37 23 -56 53 -56z" />
    <glyph glyph-name="uring" unicode="&#x16f;" horiz-adv-x="529" 
d="M85 172v308h44v-302c0 -102 32 -150 109 -150c57 0 99 30 155 98v354h44v-480h-37l-5 80h-2c-47 -55 -97 -92 -163 -92c-99 0 -145 60 -145 184zM265 539c-47 0 -82 35 -82 86c0 52 35 87 82 87s82 -35 82 -87c0 -51 -35 -86 -82 -86zM265 565c29 0 52 24 52 60
c0 37 -23 61 -52 61s-53 -24 -53 -61c0 -36 24 -60 53 -60z" />
    <glyph glyph-name="Uhungarumlaut" unicode="&#x170;" horiz-adv-x="627" 
d="M91 253v406h46v-401c0 -175 83 -228 176 -228c95 0 179 53 179 228v401h44v-406c0 -206 -110 -265 -223 -265c-114 0 -222 59 -222 265zM258 709h-37l68 106h48zM366 709l68 106h48l-79 -106h-37z" />
    <glyph glyph-name="uhungarumlaut" unicode="&#x171;" horiz-adv-x="529" 
d="M85 172v308h44v-302c0 -102 32 -150 109 -150c57 0 99 30 155 98v354h44v-480h-37l-5 80h-2c-47 -55 -97 -92 -163 -92c-99 0 -145 60 -145 184zM183 570l71 138h46l-83 -138h-34zM316 570l72 138h45l-83 -138h-34z" />
    <glyph glyph-name="Uogonek" unicode="&#x172;" horiz-adv-x="627" 
d="M91 253v406h46v-401c0 -175 83 -228 176 -228c95 0 179 53 179 228v401h44v-406c0 -172 -73 -221 -155 -261c-53 -27 -84 -73 -84 -108s26 -52 51 -52c17 0 30 4 43 14l16 -27c-15 -13 -43 -24 -65 -24c-46 0 -84 27 -84 82c0 52 34 81 64 111c-129 0 -231 64 -231 265z
" />
    <glyph glyph-name="uogonek" unicode="&#x173;" horiz-adv-x="529" 
d="M85 172v308h44v-302c0 -102 31 -150 109 -150c57 0 99 30 155 98v354h44v-480c-55 -34 -86 -73 -86 -116c0 -34 24 -52 49 -52c17 0 30 4 43 14l16 -26c-15 -13 -44 -23 -65 -23c-46 0 -81 27 -81 81c0 51 35 91 87 129l-5 73h-2c-47 -55 -97 -92 -163 -92
c-99 0 -145 60 -145 184z" />
    <glyph glyph-name="Wcircumflex" unicode="&#x174;" horiz-adv-x="763" 
d="M174 0l-150 659h49l82 -388c16 -72 31 -144 46 -215h4c15 71 33 143 50 215l104 388h46l104 -388c17 -72 35 -143 52 -215h4c15 72 29 143 44 215l82 388h46l-148 -659h-51l-120 452c-12 52 -23 97 -35 149h-4c-11 -52 -24 -97 -36 -149l-118 -452h-51zM304 709h-40
l96 106h42l96 -106h-40l-75 72h-4z" />
    <glyph glyph-name="wcircumflex" unicode="&#x175;" horiz-adv-x="685" 
d="M166 0l-142 480h48l86 -311c12 -44 23 -85 33 -128h4c11 43 23 84 35 128l87 311h53l87 -311c12 -44 24 -85 36 -128h4c11 43 23 84 34 128l85 311h45l-138 -480h-58l-84 298c-14 46 -23 90 -37 137h-4c-11 -47 -23 -93 -38 -139l-83 -296h-53zM230 572l94 136h39
l94 -136h-37l-75 99h-4l-75 -99h-36z" />
    <glyph glyph-name="Ycircumflex" unicode="&#x176;" horiz-adv-x="440" 
d="M197 0v267l-198 392h49l100 -206c23 -48 45 -94 70 -142h4c25 48 50 94 72 142l100 206h47l-198 -392v-267h-46zM143 709h-40l96 106h42l96 -106h-40l-75 72h-4z" />
    <glyph glyph-name="ycircumflex" unicode="&#x177;" horiz-adv-x="436" 
d="M34 -170c10 -4 25 -8 39 -8c59 0 99 54 123 127l13 42l-197 489h48l116 -302c15 -40 34 -92 52 -134h4c15 42 31 94 44 134l103 302h45l-190 -540c-27 -80 -75 -159 -161 -159c-18 0 -36 4 -49 10zM116 572l94 136h39l94 -136h-37l-75 99h-4l-75 -99h-36z" />
    <glyph glyph-name="Ydieresis" unicode="&#x178;" horiz-adv-x="440" 
d="M197 0v267l-198 392h49l100 -206c23 -48 45 -94 70 -142h4c25 48 50 94 72 142l100 206h47l-198 -392v-267h-46zM141 725c-21 0 -37 14 -37 36c0 23 16 37 37 37s37 -14 37 -37c0 -22 -16 -36 -37 -36zM299 725c-21 0 -37 14 -37 36c0 23 16 37 37 37c20 0 36 -14 36 -37
c0 -22 -16 -36 -36 -36z" />
    <glyph glyph-name="Zacute" unicode="&#x179;" horiz-adv-x="531" 
d="M46 0v27l380 592h-346v40h403v-27l-379 -592h383v-40h-441zM389 815l-110 -106h-40l92 106h58z" />
    <glyph glyph-name="zacute" unicode="&#x17a;" horiz-adv-x="404" 
d="M27 0v24l284 418h-253v38h310v-23l-283 -418h293v-39h-351zM307 708l-106 -136h-38l92 136h52z" />
    <glyph glyph-name="Zdotaccent" unicode="&#x17b;" horiz-adv-x="531" 
d="M46 0v27l380 592h-346v40h403v-27l-379 -592h383v-40h-441zM276 721c-22 0 -40 16 -40 41c0 23 18 39 40 39s40 -16 40 -39c0 -25 -18 -41 -40 -41z" />
    <glyph glyph-name="zdotaccent" unicode="&#x17c;" horiz-adv-x="404" 
d="M27 0v24l284 418h-253v38h310v-23l-283 -418h293v-39h-351zM219 596c-22 0 -38 16 -38 41c0 23 16 39 38 39c21 0 38 -16 38 -39c0 -25 -17 -41 -38 -41z" />
    <glyph glyph-name="Zcaron" unicode="&#x17d;" horiz-adv-x="531" 
d="M46 0v27l380 592h-346v40h403v-27l-379 -592h383v-40h-441zM353 815h40l-96 -106h-42l-96 106h40l75 -72h4z" />
    <glyph glyph-name="zcaron" unicode="&#x17e;" horiz-adv-x="404" 
d="M27 0v24l284 418h-253v38h310v-23l-283 -418h293v-39h-351zM199 572l-94 136h37l75 -99h4l75 99h36l-94 -136h-39z" />
    <glyph glyph-name="uni0180" unicode="&#x180;" horiz-adv-x="528" 
d="M136 354v-265c53 -45 105 -62 142 -62c97 0 167 86 167 210c0 112 -42 196 -152 196c-48 0 -100 -28 -157 -79zM136 491l-2 -94c49 41 107 75 166 75c128 0 192 -92 192 -235c0 -157 -99 -249 -212 -249c-46 0 -99 22 -144 57h-2l-5 -45h-37v581h-77v29l77 4v105h44v-105
h190v-33h-190v-90z" />
    <glyph glyph-name="uni018F" unicode="&#x18f;" horiz-adv-x="644" 
d="M545 299h-437c8 -165 92 -271 213 -271c127 0 214 107 224 271zM154 565l-23 31c43 43 111 75 194 75c166 0 267 -131 267 -340c0 -208 -111 -343 -271 -343s-260 142 -260 338c0 3 0 7 1 11h484c-2 179 -82 294 -221 294c-68 0 -129 -26 -171 -66z" />
    <glyph glyph-name="uni0192" unicode="&#x192;" horiz-adv-x="479" 
d="M443 653l-12 -36c-16 6 -34 15 -62 15c-69 0 -93 -79 -102 -160l-7 -67h138v-37h-142l-29 -266c-13 -123 -54 -200 -151 -200c-26 0 -48 6 -65 16l13 34c15 -7 33 -11 52 -11c71 0 98 70 108 165l28 262h-95v33l67 4h32l7 63c14 125 55 203 146 203c33 0 56 -10 74 -18z
" />
    <glyph glyph-name="Ohorn" unicode="&#x1a0;" horiz-adv-x="645" 
d="M323 30c133 0 223 119 223 302c0 182 -90 297 -223 297c-134 0 -224 -115 -224 -297c0 -183 90 -302 224 -302zM528 747l35 19c12 -18 19 -35 19 -55c0 -53 -37 -83 -98 -97c68 -57 110 -156 110 -282c0 -209 -113 -344 -271 -344c-159 0 -272 135 -272 344
c0 208 113 339 272 339c46 0 88 -11 124 -32c65 9 95 31 95 69c0 13 -5 25 -14 39z" />
    <glyph glyph-name="ohorn" unicode="&#x1a1;" horiz-adv-x="535" 
d="M267 27c97 0 170 86 170 212c0 127 -73 214 -170 214s-169 -87 -169 -214c0 -126 72 -212 169 -212zM431 578l35 20c13 -18 20 -36 20 -56c0 -57 -44 -82 -90 -95c52 -42 87 -113 87 -208c0 -159 -100 -251 -216 -251c-115 0 -215 92 -215 251c0 161 100 253 215 253
c33 0 64 -7 92 -21c57 7 87 30 87 68c0 13 -5 26 -15 39z" />
    <glyph glyph-name="Uhorn" unicode="&#x1af;" horiz-adv-x="638" 
d="M582 767l35 19c13 -18 20 -35 20 -55c0 -62 -49 -86 -101 -98v-380c0 -206 -110 -265 -223 -265c-114 0 -222 59 -222 265v406h46v-401c0 -175 83 -228 176 -228c95 0 179 53 179 228v401h14c61 9 91 28 91 69c0 13 -5 25 -15 39z" />
    <glyph glyph-name="uhorn" unicode="&#x1b0;" horiz-adv-x="529" 
d="M472 588l35 20c12 -18 19 -36 19 -56c0 -60 -49 -84 -89 -95v-457h-37l-5 80h-2c-47 -55 -97 -92 -163 -92c-99 0 -145 60 -145 184v308h44v-302c0 -102 32 -150 109 -150c57 0 99 30 155 98v354h7c52 7 86 28 86 69c0 13 -5 26 -14 39z" />
    <glyph glyph-name="uni01CD" unicode="&#x1cd;" horiz-adv-x="519" 
d="M280 709h-42l-96 106h40l75 -72h4l75 72h40zM142 265h234l-42 123c-26 78 -50 147 -73 228h-4c-23 -81 -46 -150 -73 -228zM466 0l-77 226h-261l-77 -226h-47l233 659h46l232 -659h-49z" />
    <glyph glyph-name="uni01CE" unicode="&#x1ce;" horiz-adv-x="499" 
d="M65 120c0 106 97 157 310 181c2 73 -19 152 -113 152c-65 0 -121 -32 -153 -56l-20 33c34 24 100 62 178 62c114 0 152 -82 152 -185v-307h-37l-5 62h-2c-49 -39 -107 -74 -170 -74c-76 0 -140 41 -140 132zM111 122c0 -69 46 -96 101 -96s104 27 163 78v163
c-197 -23 -264 -69 -264 -145zM243 572l-94 136h37l75 -99h4l74 99h37l-94 -136h-39z" />
    <glyph glyph-name="uni01CF" unicode="&#x1cf;" horiz-adv-x="233" 
d="M94 0v659h46v-659h-46zM194 815h40l-96 -106h-42l-96 106h40l75 -72h4z" />
    <glyph glyph-name="uni01D0" unicode="&#x1d0;" horiz-adv-x="229" 
d="M92 0v480h44v-480h-44zM95 572l-94 136h36l75 -99h4l75 99h37l-94 -136h-39z" />
    <glyph glyph-name="uni01D1" unicode="&#x1d1;" horiz-adv-x="645" 
d="M323 -12c-159 0 -272 135 -272 344c0 208 113 339 272 339c158 0 271 -131 271 -339c0 -209 -113 -344 -271 -344zM323 30c133 0 223 119 223 302c0 182 -90 297 -223 297c-134 0 -224 -115 -224 -297c0 -183 90 -302 224 -302zM400 815h40l-96 -106h-42l-96 106h40
l75 -72h4z" />
    <glyph glyph-name="uni01D2" unicode="&#x1d2;" horiz-adv-x="535" 
d="M52 239c0 161 100 253 215 253c116 0 216 -92 216 -253c0 -159 -100 -251 -216 -251c-115 0 -215 92 -215 251zM98 239c0 -126 72 -212 169 -212s170 86 170 212c0 127 -73 214 -170 214s-169 -87 -169 -214zM248 572l-94 136h36l75 -99h4l75 99h37l-94 -136h-39z" />
    <glyph glyph-name="uni01D3" unicode="&#x1d3;" horiz-adv-x="627" 
d="M91 253v406h46v-401c0 -175 83 -228 176 -228c95 0 179 53 179 228v401h44v-406c0 -206 -110 -265 -223 -265c-114 0 -222 59 -222 265zM390 815h41l-96 -106h-43l-96 106h41l75 -72h4z" />
    <glyph glyph-name="uni01D4" unicode="&#x1d4;" horiz-adv-x="529" 
d="M85 172v308h44v-302c0 -102 32 -150 109 -150c57 0 99 30 155 98v354h44v-480h-37l-5 80h-2c-47 -55 -97 -92 -163 -92c-99 0 -145 60 -145 184zM245 572l-94 136h37l75 -99h4l75 99h36l-94 -136h-39z" />
    <glyph glyph-name="uni01D5" unicode="&#x1d5;" horiz-adv-x="627" 
d="M91 253v406h46v-401c0 -175 83 -228 176 -228c95 0 179 53 179 228v401h44v-406c0 -206 -110 -265 -223 -265c-114 0 -222 59 -222 265zM200 854v33h227v-33h-227zM235 725c-21 0 -36 13 -36 35s15 36 36 36c20 0 35 -14 35 -36s-15 -35 -35 -35zM392 725
c-20 0 -35 13 -35 35s15 36 35 36c21 0 36 -14 36 -36s-15 -35 -36 -35z" />
    <glyph glyph-name="uni01D6" unicode="&#x1d6;" horiz-adv-x="529" 
d="M85 172v308h44v-302c0 -102 32 -150 109 -150c57 0 99 30 155 98v354h44v-480h-37l-5 80h-2c-47 -55 -97 -92 -163 -92c-99 0 -145 60 -145 184zM186 598c-20 0 -36 16 -36 36s16 35 36 35s36 -15 36 -35s-16 -36 -36 -36zM344 598c-21 0 -36 16 -36 36s15 35 36 35
c20 0 35 -15 35 -35s-15 -36 -35 -36zM150 747v33h228v-33h-228z" />
    <glyph glyph-name="uni01D7" unicode="&#x1d7;" horiz-adv-x="627" 
d="M91 253v406h46v-401c0 -175 83 -228 176 -228c95 0 179 53 179 228v401h44v-406c0 -206 -110 -265 -223 -265c-114 0 -222 59 -222 265zM276 829l94 106h54l-109 -106h-39zM235 725c-21 0 -36 13 -36 35s15 36 36 36c20 0 35 -14 35 -36s-15 -35 -35 -35zM392 725
c-20 0 -35 13 -35 35s15 36 35 36c21 0 36 -14 36 -36s-15 -35 -36 -35z" />
    <glyph glyph-name="uni01D8" unicode="&#x1d8;" horiz-adv-x="529" 
d="M85 172v308h44v-302c0 -102 32 -150 109 -150c57 0 99 30 155 98v354h44v-480h-37l-5 80h-2c-47 -55 -97 -92 -163 -92c-99 0 -145 60 -145 184zM221 710l81 98h52l-97 -98h-36zM186 598c-20 0 -36 16 -36 36s16 35 36 35s36 -15 36 -35s-16 -36 -36 -36zM344 598
c-21 0 -36 16 -36 36s15 35 36 35c20 0 35 -15 35 -35s-15 -36 -35 -36z" />
    <glyph glyph-name="uni01D9" unicode="&#x1d9;" horiz-adv-x="627" 
d="M91 253v406h46v-401c0 -175 83 -228 176 -228c95 0 179 53 179 228v401h44v-406c0 -206 -110 -265 -223 -265c-114 0 -222 59 -222 265zM235 725c-21 0 -36 13 -36 35s15 36 36 36c20 0 35 -14 35 -36s-15 -35 -35 -35zM392 725c-20 0 -35 13 -35 35s15 36 35 36
c21 0 36 -14 36 -36s-15 -35 -36 -35zM390 935h41l-96 -106h-43l-96 106h41l75 -72h4z" />
    <glyph glyph-name="uni01DA" unicode="&#x1da;" horiz-adv-x="529" 
d="M85 172v308h44v-302c0 -102 32 -150 109 -150c57 0 99 30 155 98v354h44v-480h-37l-5 80h-2c-47 -55 -97 -92 -163 -92c-99 0 -145 60 -145 184zM245 710l-93 98h38l73 -67h4l72 67h39l-93 -98h-40zM186 598c-20 0 -36 16 -36 36s16 35 36 35s36 -15 36 -35
s-16 -36 -36 -36zM344 598c-21 0 -36 16 -36 36s15 35 36 35c20 0 35 -15 35 -35s-15 -36 -35 -36z" />
    <glyph glyph-name="uni01DB" unicode="&#x1db;" horiz-adv-x="627" 
d="M91 253v406h46v-401c0 -175 83 -228 176 -228c95 0 179 53 179 228v401h44v-406c0 -206 -110 -265 -223 -265c-114 0 -222 59 -222 265zM257 935l94 -106h-39l-109 106h54zM392 725c-20 0 -35 13 -35 35s15 36 35 36c21 0 36 -14 36 -36s-15 -35 -36 -35zM235 725
c-21 0 -36 13 -36 35s15 36 36 36c20 0 35 -14 35 -36s-15 -35 -35 -35z" />
    <glyph glyph-name="uni01DC" unicode="&#x1dc;" horiz-adv-x="529" 
d="M85 172v308h44v-302c0 -102 32 -150 109 -150c57 0 99 30 155 98v354h44v-480h-37l-5 80h-2c-47 -55 -97 -92 -163 -92c-99 0 -145 60 -145 184zM228 808l80 -98h-36l-96 98h52zM344 598c-21 0 -36 16 -36 36s15 35 36 35c20 0 35 -15 35 -35s-15 -36 -35 -36zM186 598
c-20 0 -36 16 -36 36s16 35 36 35s36 -15 36 -35s-16 -36 -36 -36z" />
    <glyph glyph-name="Gcaron" unicode="&#x1e6;" horiz-adv-x="597" 
d="M51 331c0 209 118 340 292 340c89 0 144 -42 179 -79l-27 -30c-34 37 -80 67 -152 67c-151 0 -244 -115 -244 -298s89 -301 239 -301c59 0 115 18 147 50v205h-157v39h201v-261c-41 -44 -109 -75 -195 -75c-169 0 -283 133 -283 343zM419 815h40l-96 -106h-42l-96 106h40
l75 -72h4z" />
    <glyph glyph-name="gcaron" unicode="&#x1e7;" horiz-adv-x="487" 
d="M94 -94c0 -60 58 -101 160 -101c108 0 177 61 177 121c0 53 -39 73 -111 73h-103c-10 0 -35 2 -60 8c-44 -30 -63 -67 -63 -101zM52 -98c0 42 27 84 71 116v4c-24 14 -42 40 -42 77c0 43 31 73 52 88v4c-30 26 -60 74 -60 132c0 99 75 169 169 169c26 0 48 -6 63 -12h163
v-37h-112c31 -27 53 -70 53 -121c0 -98 -73 -169 -167 -169c-27 0 -58 7 -80 20c-21 -17 -39 -37 -39 -69c0 -35 20 -63 92 -63h103c108 0 158 -34 158 -110c0 -83 -89 -162 -227 -162c-121 0 -197 52 -197 133zM242 188c66 0 124 54 124 135s-56 133 -124 133
s-125 -51 -125 -133c0 -81 58 -135 125 -135zM213 572l-94 136h37l75 -99h4l75 99h36l-94 -136h-39z" />
    <glyph glyph-name="uni01EA" unicode="&#x1ea;" horiz-adv-x="645" 
d="M270 -123c0 40 21 80 60 111c-171 0 -279 137 -279 344c0 208 113 339 272 339c158 0 271 -131 271 -339c0 -176 -71 -280 -203 -340c-57 -25 -82 -72 -82 -108c0 -35 25 -52 51 -52c17 0 29 4 43 14l16 -27c-15 -13 -43 -24 -65 -24c-47 0 -84 27 -84 82zM323 30
c133 0 223 119 223 302c0 182 -90 297 -223 297c-134 0 -224 -115 -224 -297c0 -183 90 -302 224 -302z" />
    <glyph glyph-name="uni01EB" unicode="&#x1eb;" horiz-adv-x="535" 
d="M213 -122c0 50 34 92 56 110c-119 2 -217 94 -217 251c0 161 100 253 215 253c116 0 216 -92 216 -253c0 -137 -64 -204 -157 -246c-44 -20 -75 -67 -75 -109c0 -35 24 -52 49 -52c18 0 30 4 43 14l16 -26c-15 -13 -43 -23 -65 -23c-45 0 -81 27 -81 81zM98 239
c0 -126 72 -212 169 -212s170 86 170 212c0 127 -73 214 -170 214s-169 -87 -169 -214z" />
    <glyph glyph-name="uni0218" unicode="&#x218;" horiz-adv-x="514" 
d="M43 87l29 32c48 -54 117 -89 194 -89c100 0 164 54 164 132c0 82 -54 109 -119 138l-100 45c-57 25 -133 66 -133 164c0 95 82 162 191 162c80 0 144 -36 184 -79l-27 -31c-38 41 -91 68 -157 68c-87 0 -145 -46 -145 -118c0 -76 66 -105 114 -127l100 -44
c73 -33 138 -74 138 -175s-83 -177 -211 -177c-96 0 -170 41 -222 99zM240 -51c54 -11 83 -32 83 -73c0 -52 -61 -77 -126 -85l-6 30c55 8 92 23 92 50c0 31 -28 43 -56 49z" />
    <glyph glyph-name="uni0219" unicode="&#x219;" horiz-adv-x="405" 
d="M32 54l26 33c41 -34 84 -61 153 -61c75 0 114 44 114 95c0 60 -62 86 -117 106c-73 26 -153 55 -153 137c0 70 55 128 155 128c51 0 102 -21 137 -50l-24 -31c-32 24 -66 43 -115 43c-74 0 -108 -43 -108 -87c0 -53 56 -76 113 -97c75 -28 157 -53 157 -147
c0 -72 -58 -135 -162 -135c-71 0 -133 30 -176 66zM192 -51c55 -11 83 -32 83 -73c0 -52 -61 -77 -125 -85l-7 30c55 8 93 23 93 50c0 31 -28 43 -57 49z" />
    <glyph glyph-name="uni021A" unicode="&#x21a;" horiz-adv-x="517" 
d="M236 0v619h-210v40h465v-40h-209v-619h-46zM234 -51c55 -11 83 -32 83 -73c0 -52 -61 -77 -125 -85l-7 30c55 8 93 23 93 50c0 31 -28 43 -56 49z" />
    <glyph glyph-name="uni021B" unicode="&#x21b;" horiz-adv-x="312" 
d="M103 133v309h-75v34l76 4l6 139h38v-139h139v-38h-139v-313c0 -61 15 -102 81 -102c18 0 43 7 60 15l12 -36c-28 -10 -58 -18 -78 -18c-93 0 -120 59 -120 145zM175 -51c54 -11 83 -32 83 -73c0 -52 -61 -77 -125 -85l-7 30c55 8 92 23 92 50c0 31 -27 43 -56 49z" />
    <glyph glyph-name="uni0237" unicode="&#x237;" horiz-adv-x="229" 
d="M92 -86v566h45v-569c0 -94 -34 -140 -108 -140c-23 0 -47 6 -62 12l11 36c12 -4 31 -10 50 -10c54 0 64 44 64 105z" />
    <glyph glyph-name="uni0243" unicode="&#x243;" horiz-adv-x="588" 
d="M157 37h133c131 0 212 49 212 156c0 96 -78 142 -212 142h-133v-124h166v-33h-166v-141zM157 622v-252h113c136 0 191 44 191 131c0 85 -64 121 -185 121h-119zM389 357v-4c97 -14 158 -68 158 -160c0 -128 -96 -193 -245 -193h-191v178h-78v30l78 3v448h178
c132 0 217 -50 217 -160c0 -68 -39 -122 -117 -142z" />
    <glyph glyph-name="uni0251" unicode="&#x251;" horiz-adv-x="544" 
d="M99 239c0 -127 56 -212 158 -212c53 0 100 28 151 79v285c-51 45 -93 62 -140 62c-96 0 -169 -93 -169 -214zM52 239c0 155 99 253 214 253c57 0 97 -21 142 -58h2l3 46h39v-480h-38l-4 62h-3c-39 -39 -92 -74 -156 -74c-121 0 -199 89 -199 251z" />
    <glyph glyph-name="uni0259" unicode="&#x259;" horiz-adv-x="483" 
d="M38 219c0 12 0 24 2 36h346c-2 114 -61 199 -164 199c-55 0 -97 -19 -136 -46l-18 33c40 28 88 51 159 51c118 0 204 -91 204 -251c0 -157 -85 -253 -200 -253c-112 0 -193 81 -193 231zM79 221c0 -134 63 -195 151 -195c90 0 147 74 156 195h-307z" />
    <glyph glyph-name="uni0261" unicode="&#x261;" horiz-adv-x="545" 
d="M110 -142c48 -35 98 -49 148 -49c99 0 150 59 150 156l1 109c-40 -39 -94 -74 -158 -74c-120 0 -198 88 -198 246c0 152 99 246 213 246c57 0 97 -21 140 -56h3l4 44h39v-522c0 -114 -70 -187 -194 -187c-64 0 -121 20 -168 52zM258 39c53 0 100 28 150 79v273
c-50 45 -93 62 -140 62c-95 0 -169 -90 -169 -207c0 -124 57 -207 159 -207z" />
    <glyph glyph-name="h.sups" unicode="&#x2b0;" horiz-adv-x="356" 
d="M58 260v473h37v-134l-1 -70c29 31 69 57 111 57c76 0 101 -51 101 -122v-204h-38v197c0 58 -13 95 -73 95c-29 0 -61 -17 -100 -56v-236h-37z" />
    <glyph glyph-name="j.sups" unicode="&#x2b2;" horiz-adv-x="157" 
d="M21 110c-18 0 -27 2 -43 8l10 32c9 -4 15 -6 29 -6c35 0 43 25 43 65v369h37v-365c0 -71 -25 -103 -76 -103zM80 650c-18 0 -32 13 -32 31s14 31 32 31s32 -13 32 -31s-14 -31 -32 -31z" />
    <glyph glyph-name="r.sups" unicode="&#x2b3;" horiz-adv-x="221" 
d="M58 260v318h29l7 -57h3c25 41 53 65 91 65c13 0 27 -3 35 -7l-9 -35c-7 2 -19 4 -29 4c-31 0 -63 -19 -88 -75v-213h-39z" />
    <glyph glyph-name="w.sups" unicode="&#x2b7;" horiz-adv-x="466" 
d="M109 260l-93 318h41l52 -198l23 -87h4l23 87l54 198h40l56 -198l23 -87h4l25 87l51 198h38l-92 -318h-48l-51 186l-25 92h-2l-23 -92l-53 -186h-47z" />
    <glyph glyph-name="y.sups" unicode="&#x2b8;" horiz-adv-x="299" 
d="M27 160c9 -4 17 -6 26 -6c37 0 64 32 79 79l8 24l-132 321h39l74 -189c10 -27 23 -60 35 -92h4c9 32 21 62 31 92l62 189h38l-122 -348c-20 -57 -54 -110 -115 -110c-13 0 -25 2 -36 6z" />
    <glyph glyph-name="uni02BB" unicode="&#x2bb;" horiz-adv-x="219" 
d="M143 703l18 -23c-44 -36 -67 -67 -67 -124c2 1 5 1 8 1c20 0 40 -12 40 -37s-17 -40 -40 -40c-26 0 -44 24 -44 67c0 71 32 121 85 156z" />
    <glyph glyph-name="uni02BC" unicode="&#x2bc;" horiz-adv-x="219" 
d="M76 477l-18 23c44 36 67 67 67 124c-2 -1 -5 -1 -8 -1c-19 0 -39 12 -39 37s16 40 39 40c27 0 45 -24 45 -67c0 -71 -32 -121 -86 -156z" />
    <glyph glyph-name="uni02BE" unicode="&#x2be;" horiz-adv-x="141" 
d="M33 539v24c47 0 68 26 68 62c0 37 -21 62 -68 62v25c62 2 100 -32 100 -87s-38 -88 -100 -86z" />
    <glyph glyph-name="uni02BF" unicode="&#x2bf;" horiz-adv-x="159" 
d="M124 712v-25c-47 0 -68 -25 -68 -62c0 -36 21 -62 68 -62v-24c-61 -2 -100 31 -100 86s39 89 100 87z" />
    <glyph glyph-name="circumflex" unicode="&#x2c6;" horiz-adv-x="535" 
d="M154 572l94 136h39l94 -136h-37l-75 99h-4l-75 -99h-36z" />
    <glyph glyph-name="caron" unicode="&#x2c7;" horiz-adv-x="535" 
d="M248 572l-94 136h36l75 -99h4l75 99h37l-94 -136h-39z" />
    <glyph glyph-name="uni02C8" unicode="&#x2c8;" horiz-adv-x="95" 
d="M32 529l-6 172h43l-6 -172h-31z" />
    <glyph glyph-name="uni02C9" unicode="&#x2c9;" horiz-adv-x="259" 
d="M16 606v36h227v-36h-227z" />
    <glyph glyph-name="uni02CA" unicode="&#x2ca;" horiz-adv-x="218" 
d="M196 708l-107 -136h-37l91 136h53z" />
    <glyph glyph-name="uni02CB" unicode="&#x2cb;" horiz-adv-x="218" 
d="M125 572l-106 136h52l92 -136h-38z" />
    <glyph glyph-name="uni02CC" unicode="&#x2cc;" horiz-adv-x="95" 
d="M32 -75h31l6 -172h-43z" />
    <glyph glyph-name="breve" unicode="&#x2d8;" horiz-adv-x="535" 
d="M267 576c-81 0 -113 68 -118 119h32c6 -43 33 -87 86 -87c54 0 81 44 86 87h33c-5 -51 -37 -119 -119 -119z" />
    <glyph glyph-name="dotaccent" unicode="&#x2d9;" horiz-adv-x="535" 
d="M267 596c-21 0 -38 16 -38 41c0 23 17 39 38 39c22 0 38 -16 38 -39c0 -25 -16 -41 -38 -41z" />
    <glyph glyph-name="ring" unicode="&#x2da;" horiz-adv-x="535" 
d="M267 539c-46 0 -82 35 -82 86c0 52 36 87 82 87c47 0 83 -35 83 -87c0 -51 -36 -86 -83 -86zM267 565c30 0 53 24 53 60c0 37 -23 61 -53 61c-29 0 -52 -24 -52 -61c0 -36 23 -60 52 -60z" />
    <glyph glyph-name="ogonek" unicode="&#x2db;" horiz-adv-x="535" 
d="M213 -122c0 51 35 97 72 126h43c-46 -34 -77 -77 -77 -120c0 -35 24 -52 49 -52c18 0 30 4 43 14l16 -26c-15 -13 -43 -23 -65 -23c-45 0 -81 27 -81 81z" />
    <glyph glyph-name="tilde" unicode="&#x2dc;" horiz-adv-x="535" 
d="M144 581c3 43 21 89 68 89c49 0 77 -55 111 -55c22 0 34 21 38 55h30c-3 -42 -21 -89 -69 -89s-74 55 -111 55c-21 0 -33 -20 -37 -55h-30z" />
    <glyph glyph-name="hungarumlaut" unicode="&#x2dd;" horiz-adv-x="535" 
d="M185 570l72 138h46l-84 -138h-34zM319 570l71 138h46l-84 -138h-33z" />
    <glyph glyph-name="l.sups" unicode="&#x2e1;" horiz-adv-x="162" 
d="M58 313v420h37v-425c0 -17 6 -23 16 -23c4 0 8 0 14 2l7 -30c-7 -3 -14 -5 -26 -5c-35 0 -48 21 -48 61z" />
    <glyph glyph-name="s.sups" unicode="&#x2e2;" horiz-adv-x="275" 
d="M21 296l21 27c29 -22 60 -39 102 -39c44 0 70 26 70 58c0 35 -39 50 -77 64c-47 18 -100 39 -100 95c0 42 36 85 102 85c41 0 74 -15 99 -34l-22 -26c-24 17 -42 28 -77 28c-43 0 -64 -26 -64 -51c0 -36 36 -47 75 -63c49 -19 102 -34 102 -94c0 -55 -45 -94 -108 -94
c-49 0 -92 20 -123 44z" />
    <glyph glyph-name="x.sups" unicode="&#x2e3;" horiz-adv-x="283" 
d="M8 260l111 167l-101 151h43l49 -75l33 -52h4l31 52l46 75h42l-100 -155l107 -163h-43l-51 80l-37 57h-4l-38 -57l-51 -80h-41z" />
    <glyph glyph-name="uni0300" unicode="&#x300;" 
d="M18 572l-106 136h52l92 -136h-38z" />
    <glyph glyph-name="uni0301" unicode="&#x301;" 
d="M88 708l-106 -136h-38l92 136h52z" />
    <glyph glyph-name="uni0302" unicode="&#x302;" 
d="M-114 572l95 136h38l95 -136h-37l-75 99h-4l-75 -99h-37z" />
    <glyph glyph-name="uni0303" unicode="&#x303;" 
d="M-124 581c3 43 21 89 69 89c49 0 77 -55 111 -55c21 0 33 21 38 55h30c-3 -42 -21 -89 -69 -89c-49 0 -75 55 -111 55c-21 0 -33 -20 -38 -55h-30z" />
    <glyph glyph-name="uni0304" unicode="&#x304;" 
d="M-113 606v36h226v-36h-226z" />
    <glyph glyph-name="uni0306" unicode="&#x306;" 
d="M0 576c-82 0 -113 68 -119 119h33c6 -43 33 -87 86 -87s80 44 86 87h33c-6 -51 -37 -119 -119 -119z" />
    <glyph glyph-name="uni0307" unicode="&#x307;" 
d="M0 596c-22 0 -38 16 -38 41c0 23 16 39 38 39s38 -16 38 -39c0 -25 -16 -41 -38 -41z" />
    <glyph glyph-name="uni0308" unicode="&#x308;" 
d="M-79 598c-21 0 -36 16 -36 37c0 20 15 36 36 36s37 -16 37 -36c0 -21 -16 -37 -37 -37zM79 598c-21 0 -37 16 -37 37c0 20 16 36 37 36s36 -16 36 -36c0 -21 -15 -37 -36 -37z" />
    <glyph glyph-name="uni0309" unicode="&#x309;" 
d="M-24 551l-8 26c36 11 63 26 63 55c0 30 -30 46 -85 48l4 32c66 -3 121 -24 121 -75c0 -52 -47 -73 -95 -86z" />
    <glyph glyph-name="uni030A" unicode="&#x30a;" 
d="M0 539c-47 0 -82 35 -82 86c0 52 35 87 82 87s82 -35 82 -87c0 -51 -35 -86 -82 -86zM0 565c29 0 52 24 52 60c0 37 -23 61 -52 61s-52 -24 -52 -61c0 -36 23 -60 52 -60z" />
    <glyph glyph-name="uni030B" unicode="&#x30b;" 
d="M-82 570l72 138h45l-83 -138h-34zM51 570l72 138h46l-84 -138h-34z" />
    <glyph glyph-name="uni030C" unicode="&#x30c;" 
d="M-19 572l-95 136h37l75 -99h4l75 99h37l-95 -136h-38z" />
    <glyph glyph-name="uni030F" unicode="&#x30f;" 
d="M10 708l72 -138h-34l-83 138h45zM-123 708l72 -138h-34l-84 138h46z" />
    <glyph glyph-name="uni0312" unicode="&#x312;" 
d="M27 717l15 -24c-38 -21 -53 -48 -54 -79c3 1 5 1 8 1c16 0 35 -9 35 -32c0 -26 -15 -37 -33 -37c-26 0 -41 21 -41 61c0 42 19 84 70 110z" />
    <glyph glyph-name="uni0313" unicode="&#x313;" 
d="M-27 545l-15 25c37 20 52 48 53 79c-2 -1 -5 -1 -8 -1c-15 0 -34 9 -34 32c0 26 15 37 33 37c26 0 41 -21 41 -61c0 -42 -20 -85 -70 -111z" />
    <glyph glyph-name="uni031B" unicode="&#x31b;" 
d="M-2 440l-6 30c64 8 94 29 94 69c0 13 -5 26 -14 39l35 20c12 -18 19 -36 19 -56c0 -63 -53 -92 -128 -102z" />
    <glyph glyph-name="uni0323" unicode="&#x323;" 
d="M0 -194c-22 0 -38 16 -38 41c0 23 16 39 38 39s38 -16 38 -39c0 -25 -16 -41 -38 -41z" />
    <glyph glyph-name="uni0324" unicode="&#x324;" 
d="M-79 -191c-21 0 -36 16 -36 36c0 21 15 37 36 37s37 -16 37 -37c0 -20 -16 -36 -37 -36zM79 -191c-21 0 -37 16 -37 36c0 21 16 37 37 37s36 -16 36 -37c0 -20 -15 -36 -36 -36z" />
    <glyph glyph-name="uni0326" unicode="&#x326;" 
d="M-25 -51c54 -11 83 -32 83 -73c0 -52 -61 -77 -125 -85l-7 30c55 8 93 23 93 50c0 31 -28 43 -57 49z" />
    <glyph glyph-name="uni0327" unicode="&#x327;" 
d="M-48 -74l40 76h35l-29 -56c32 -11 60 -29 60 -69c0 -52 -61 -77 -125 -85l-7 30c55 8 93 23 93 51c0 30 -28 43 -67 53z" />
    <glyph glyph-name="uni0328" unicode="&#x328;" 
d="M-54 -122c0 51 35 97 71 126h44c-47 -34 -77 -77 -77 -120c0 -35 24 -52 49 -52c17 0 30 4 43 14l16 -26c-15 -13 -44 -23 -65 -23c-46 0 -81 27 -81 81z" />
    <glyph glyph-name="uni032E" unicode="&#x32e;" 
d="M0 -203c-82 0 -113 68 -119 119h33c6 -43 33 -86 86 -86s80 43 86 86h33c-6 -51 -37 -119 -119 -119z" />
    <glyph glyph-name="uni0331" unicode="&#x331;" 
d="M113 -124v-36h-228v36h228z" />
    <glyph glyph-name="pi" unicode="&#x3c0;" horiz-adv-x="534" 
d="M113 0v440h-86v36l67 4h407v-40h-79v-360c0 -30 11 -53 37 -53c8 0 16 2 27 6l8 -36c-16 -7 -28 -9 -43 -9c-53 0 -73 36 -73 98v354h-221v-440h-44z" />
    <glyph glyph-name="a.sups" unicode="&#x1d43;" horiz-adv-x="337" 
d="M139 252c-57 0 -97 34 -97 91c0 70 63 105 206 118c-1 51 -15 92 -70 92c-40 0 -84 -21 -107 -37l-15 27c26 18 74 43 126 43c77 0 103 -50 103 -126v-200h-30l-6 39h-4c-28 -24 -63 -47 -106 -47zM148 284c31 0 64 16 100 49v102c-124 -13 -167 -44 -167 -89
c0 -43 26 -62 67 -62z" />
    <glyph glyph-name="b.sups" unicode="&#x1d47;" horiz-adv-x="367" 
d="M58 260v473h37v-135l-2 -63c33 28 66 51 107 51c87 0 130 -63 130 -161c0 -109 -64 -173 -140 -173c-30 0 -65 14 -95 39h-4l-4 -31h-29zM95 324c32 -28 67 -39 94 -39c58 0 102 54 102 140c0 75 -29 128 -96 128c-31 0 -66 -19 -100 -51v-178z" />
    <glyph glyph-name="d.sups" unicode="&#x1d48;" horiz-adv-x="367" 
d="M174 252c-85 0 -137 62 -137 173c0 98 66 161 141 161c36 0 65 -14 96 -38l-2 57v128h37v-473h-30l-6 37h-4c-27 -24 -55 -45 -95 -45zM180 285c30 0 58 18 92 49v179c-32 29 -64 40 -93 40c-56 0 -103 -55 -103 -128c0 -86 32 -140 104 -140z" />
    <glyph glyph-name="e.sups" unicode="&#x1d49;" horiz-adv-x="330" 
d="M182 252c-84 0 -151 59 -151 167c0 102 65 167 144 167c102 0 126 -90 126 -143c0 -11 0 -15 -2 -31h-230c1 -76 46 -128 116 -128c35 0 66 13 88 29l16 -27c-27 -17 -60 -34 -107 -34zM69 442h197c0 51 -23 111 -91 111c-58 0 -98 -43 -106 -111z" />
    <glyph glyph-name="g.sups" unicode="&#x1d4d;" horiz-adv-x="332" 
d="M69 202c0 -39 37 -62 102 -62c68 0 114 36 114 73c0 32 -26 44 -72 44h-64c-9 0 -27 0 -41 4c-26 -17 -39 -38 -39 -59zM34 197c0 28 16 53 46 73v4c-16 10 -28 28 -28 52c0 26 19 46 35 57v4c-21 17 -41 48 -41 86c0 67 52 113 117 113c21 0 35 -4 50 -10h105v-32h-70
c18 -15 31 -44 31 -72c0 -67 -52 -113 -116 -113c-17 0 -36 3 -52 13c-13 -10 -24 -23 -24 -42c0 -23 15 -38 60 -38h67c74 0 108 -22 108 -75c0 -56 -60 -107 -157 -107c-81 0 -131 32 -131 87zM163 389c43 0 81 34 81 84s-38 81 -81 81c-47 0 -81 -30 -81 -81
c0 -50 34 -84 81 -84z" />
    <glyph glyph-name="k.sups" unicode="&#x1d4f;" horiz-adv-x="317" 
d="M58 260v473h37v-336h4l151 181h45l-108 -128l125 -190h-44l-105 163l-68 -81v-82h-37z" />
    <glyph glyph-name="m.sups" unicode="&#x1d50;" horiz-adv-x="548" 
d="M58 260v318h29l5 -48h4c27 32 59 56 101 56c45 0 76 -20 89 -63c31 33 69 63 111 63c70 0 97 -51 97 -122v-204h-37v197c0 58 -15 95 -70 95c-28 0 -55 -17 -92 -56v-236h-38v197c0 58 -15 95 -70 95c-28 0 -54 -17 -92 -56v-236h-37z" />
    <glyph glyph-name="o.sups" unicode="&#x1d52;" horiz-adv-x="360" 
d="M179 252c-81 0 -146 62 -146 167c0 106 65 167 146 167s146 -61 146 -167c0 -105 -65 -167 -146 -167zM179 285c64 0 107 55 107 134c0 80 -43 134 -107 134s-107 -54 -107 -134c0 -79 43 -134 107 -134z" />
    <glyph glyph-name="p.sups" unicode="&#x1d56;" horiz-adv-x="367" 
d="M58 121v457h29l6 -40h4c28 24 62 48 103 48c87 0 130 -63 130 -161c0 -109 -64 -173 -140 -173c-30 0 -68 14 -97 38l2 -59v-110h-37zM95 324c32 -28 67 -39 94 -39c58 0 102 54 102 140c0 75 -29 128 -96 128c-31 0 -66 -19 -100 -51v-178z" />
    <glyph glyph-name="t.sups" unicode="&#x1d57;" horiz-adv-x="216" 
d="M68 354v191h-50v30l51 3l5 93h32v-93h93v-33h-93v-193c0 -41 14 -67 54 -67c13 0 27 3 40 9l10 -30c-17 -6 -41 -12 -57 -12c-65 0 -85 42 -85 102z" />
    <glyph glyph-name="u.sups" unicode="&#x1d58;" horiz-adv-x="363" 
d="M158 252c-76 0 -101 50 -101 122v204h38v-198c0 -57 13 -95 71 -95c31 0 63 17 102 57v236h37v-318h-29l-5 47h-4c-29 -31 -67 -55 -109 -55z" />
    <glyph glyph-name="v.sups" unicode="&#x1d5b;" horiz-adv-x="301" 
d="M127 260l-119 318h39l68 -191l33 -93h4l35 93l68 191h38l-120 -318h-46z" />
    <glyph glyph-name="c.sups" unicode="&#x1d9c;" horiz-adv-x="302" 
d="M183 252c-87 0 -150 60 -150 167c0 106 71 167 150 167c45 0 74 -18 95 -36l-19 -26c-23 19 -41 29 -76 29c-63 0 -111 -56 -111 -134c0 -79 46 -134 112 -134c37 0 62 13 83 31l17 -26c-24 -20 -53 -38 -101 -38z" />
    <glyph glyph-name="f.sups" unicode="&#x1da0;" horiz-adv-x="183" 
d="M201 731l-9 -30c-10 4 -22 8 -39 8c-33 0 -49 -29 -49 -68v-63h74v-31h-74v-287h-37v287h-46v28l46 3v59c0 63 29 104 84 104c19 0 32 -2 50 -10z" />
    <glyph glyph-name="z.sups" unicode="&#x1dbb;" horiz-adv-x="277" 
d="M19 260v21l185 264h-164v33h213v-23l-185 -262h191v-33h-240z" />
    <glyph glyph-name="uni1E0C" unicode="&#x1e0c;" horiz-adv-x="599" 
d="M94 0v659h152c203 0 300 -128 300 -327c0 -200 -97 -332 -299 -332h-153zM140 39h101c179 0 257 121 257 293c0 171 -78 288 -257 288h-101v-581zM296 -194c-21 0 -38 16 -38 41c0 23 17 39 38 39c22 0 38 -16 38 -39c0 -25 -16 -41 -38 -41z" />
    <glyph glyph-name="uni1E0D" unicode="&#x1e0d;" horiz-adv-x="544" 
d="M52 239c0 155 99 253 213 253c58 0 97 -22 145 -59l-2 88v198h44v-719h-38l-4 62h-3c-39 -39 -92 -74 -156 -74c-121 0 -199 89 -199 251zM99 239c0 -127 56 -212 158 -212c53 0 100 28 151 79v285c-51 45 -93 62 -140 62c-96 0 -169 -93 -169 -214zM296 -194
c-21 0 -38 16 -38 41c0 23 17 39 38 39c22 0 38 -16 38 -39c0 -25 -16 -41 -38 -41z" />
    <glyph glyph-name="uni1E0E" unicode="&#x1e0e;" horiz-adv-x="599" 
d="M94 0v659h152c203 0 300 -128 300 -327c0 -200 -97 -332 -299 -332h-153zM140 39h101c179 0 257 121 257 293c0 171 -78 288 -257 288h-101v-581zM410 -124v-36h-229v36h229z" />
    <glyph glyph-name="uni1E0F" unicode="&#x1e0f;" horiz-adv-x="544" 
d="M52 239c0 155 99 253 213 253c58 0 97 -22 145 -59l-2 88v198h44v-719h-38l-4 62h-3c-39 -39 -92 -74 -156 -74c-121 0 -199 89 -199 251zM99 239c0 -127 56 -212 158 -212c53 0 100 28 151 79v285c-51 45 -93 62 -140 62c-96 0 -169 -93 -169 -214zM409 -124v-36h-229
v36h229z" />
    <glyph glyph-name="uni1E20" unicode="&#x1e20;" horiz-adv-x="597" 
d="M51 331c0 209 118 340 292 340c89 0 144 -42 179 -79l-27 -30c-34 37 -80 67 -152 67c-151 0 -244 -115 -244 -298s89 -301 239 -301c59 0 115 18 147 50v205h-157v39h201v-261c-41 -44 -109 -75 -195 -75c-169 0 -283 133 -283 343zM228 734v36h228v-36h-228z" />
    <glyph glyph-name="uni1E21" unicode="&#x1e21;" horiz-adv-x="487" 
d="M94 -94c0 -60 58 -101 160 -101c108 0 177 61 177 121c0 53 -39 73 -111 73h-103c-10 0 -35 2 -60 8c-44 -30 -63 -67 -63 -101zM52 -98c0 42 27 84 71 116v4c-24 14 -42 40 -42 77c0 43 31 73 52 88v4c-30 26 -60 74 -60 132c0 99 75 169 169 169c26 0 48 -6 63 -12h163
v-37h-112c31 -27 53 -70 53 -121c0 -98 -73 -169 -167 -169c-27 0 -58 7 -80 20c-21 -17 -39 -37 -39 -69c0 -35 20 -63 92 -63h103c108 0 158 -34 158 -110c0 -83 -89 -162 -227 -162c-121 0 -197 52 -197 133zM242 188c66 0 124 54 124 135s-56 133 -124 133
s-125 -51 -125 -133c0 -81 58 -135 125 -135zM119 606v36h227v-36h-227z" />
    <glyph glyph-name="uni1E24" unicode="&#x1e24;" horiz-adv-x="632" 
d="M94 0v659h46v-289h352v289h46v-659h-46v330h-352v-330h-46zM316 -194c-22 0 -38 16 -38 41c0 23 16 39 38 39c21 0 38 -16 38 -39c0 -25 -17 -41 -38 -41z" />
    <glyph glyph-name="uni1E25" unicode="&#x1e25;" horiz-adv-x="528" 
d="M92 0v719h44v-208v-106c50 50 100 87 166 87c99 0 145 -60 145 -184v-308h-44v302c0 102 -32 150 -110 150c-57 0 -98 -30 -157 -90v-362h-44zM282 -194c-22 0 -38 16 -38 41c0 23 16 39 38 39c21 0 38 -16 38 -39c0 -25 -17 -41 -38 -41z" />
    <glyph glyph-name="uni1E2A" unicode="&#x1e2a;" horiz-adv-x="632" 
d="M94 0v659h46v-289h352v289h46v-659h-46v330h-352v-330h-46zM316 -203c-82 0 -114 68 -119 119h33c6 -43 32 -86 86 -86c53 0 80 43 86 86h33c-6 -51 -38 -119 -119 -119z" />
    <glyph glyph-name="uni1E2B" unicode="&#x1e2b;" horiz-adv-x="528" 
d="M92 0v719h44v-208v-106c50 50 100 87 166 87c99 0 145 -60 145 -184v-308h-44v302c0 102 -32 150 -110 150c-57 0 -98 -30 -157 -90v-362h-44zM281 -203c-82 0 -114 68 -119 119h33c6 -43 32 -86 86 -86c53 0 80 43 86 86h33c-6 -51 -38 -119 -119 -119z" />
    <glyph glyph-name="uni1E36" unicode="&#x1e36;" horiz-adv-x="460" 
d="M94 0v659h46v-619h303v-40h-349zM283 -194c-22 0 -38 16 -38 41c0 23 16 39 38 39s38 -16 38 -39c0 -25 -16 -41 -38 -41z" />
    <glyph glyph-name="uni1E37" unicode="&#x1e37;" horiz-adv-x="237" 
d="M92 64v655h44v-661c0 -21 9 -31 21 -31c4 0 8 0 18 2l8 -36c-9 -3 -18 -5 -32 -5c-39 0 -59 24 -59 76zM158 -194c-21 0 -38 16 -38 41c0 23 17 39 38 39c22 0 38 -16 38 -39c0 -25 -16 -41 -38 -41z" />
    <glyph glyph-name="uni1E38" unicode="&#x1e38;" horiz-adv-x="460" 
d="M94 0v659h46v-619h303v-40h-349zM5 734v36h228v-36h-228zM283 -194c-22 0 -38 16 -38 41c0 23 16 39 38 39s38 -16 38 -39c0 -25 -16 -41 -38 -41z" />
    <glyph glyph-name="uni1E39" unicode="&#x1e39;" horiz-adv-x="237" 
d="M92 64v655h44v-661c0 -21 9 -31 21 -31c4 0 8 0 18 2l8 -36c-9 -3 -18 -5 -32 -5c-39 0 -59 24 -59 76zM0 832v36h227v-36h-227zM158 -194c-21 0 -38 16 -38 41c0 23 17 39 38 39c22 0 38 -16 38 -39c0 -25 -16 -41 -38 -41z" />
    <glyph glyph-name="uni1E3A" unicode="&#x1e3a;" horiz-adv-x="460" 
d="M94 0v659h46v-619h303v-40h-349zM396 -124v-36h-228v36h228z" />
    <glyph glyph-name="uni1E3B" unicode="&#x1e3b;" horiz-adv-x="237" 
d="M92 64v655h44v-661c0 -21 9 -31 21 -31c4 0 8 0 18 2l8 -36c-9 -3 -18 -5 -32 -5c-39 0 -59 24 -59 76zM272 -124v-36h-229v36h229z" />
    <glyph glyph-name="uni1E42" unicode="&#x1e42;" horiz-adv-x="699" 
d="M94 0v659h64l138 -387l52 -146h4l51 146l137 387h65v-659h-45v433c0 54 3 123 6 178h-4l-51 -145l-142 -394h-40l-142 394l-52 145h-4c2 -55 5 -124 5 -178v-433h-42zM350 -194c-21 0 -38 16 -38 41c0 23 17 39 38 39c22 0 38 -16 38 -39c0 -25 -16 -41 -38 -41z" />
    <glyph glyph-name="uni1E43" unicode="&#x1e43;" horiz-adv-x="812" 
d="M92 0v480h38l4 -74h3c43 49 98 86 151 86c77 0 116 -39 133 -98c55 60 108 98 163 98c96 0 144 -60 144 -184v-308h-45v302c0 102 -34 150 -107 150c-45 0 -91 -30 -144 -90v-362h-44v302c0 102 -34 150 -108 150c-43 0 -91 -30 -144 -90v-362h-44zM419 -194
c-22 0 -38 16 -38 41c0 23 16 39 38 39c21 0 38 -16 38 -39c0 -25 -17 -41 -38 -41z" />
    <glyph glyph-name="uni1E44" unicode="&#x1e44;" horiz-adv-x="629" 
d="M94 0v659h48l277 -465l75 -131h4c-3 64 -6 128 -6 192v404h43v-659h-48l-277 465l-75 131h-4c3 -63 6 -123 6 -187v-409h-43zM319 721c-22 0 -40 16 -40 41c0 23 18 39 40 39s40 -16 40 -39c0 -25 -18 -41 -40 -41z" />
    <glyph glyph-name="uni1E45" unicode="&#x1e45;" horiz-adv-x="532" 
d="M92 0v480h38l4 -74h3c49 49 99 86 165 86c99 0 145 -60 145 -184v-308h-44v302c0 102 -32 150 -110 150c-57 0 -98 -30 -157 -90v-362h-44zM283 596c-22 0 -39 16 -39 41c0 23 17 39 39 39c21 0 38 -16 38 -39c0 -25 -17 -41 -38 -41z" />
    <glyph glyph-name="uni1E46" unicode="&#x1e46;" horiz-adv-x="629" 
d="M94 0v659h48l277 -465l75 -131h4c-3 64 -6 128 -6 192v404h43v-659h-48l-277 465l-75 131h-4c3 -63 6 -123 6 -187v-409h-43zM315 -194c-22 0 -38 16 -38 41c0 23 16 39 38 39s38 -16 38 -39c0 -25 -16 -41 -38 -41z" />
    <glyph glyph-name="uni1E47" unicode="&#x1e47;" horiz-adv-x="532" 
d="M92 0v480h38l4 -74h3c49 49 99 86 165 86c99 0 145 -60 145 -184v-308h-44v302c0 102 -32 150 -110 150c-57 0 -98 -30 -157 -90v-362h-44zM273 -194c-22 0 -38 16 -38 41c0 23 16 39 38 39c21 0 38 -16 38 -39c0 -25 -17 -41 -38 -41z" />
    <glyph glyph-name="uni1E48" unicode="&#x1e48;" horiz-adv-x="629" 
d="M94 0v659h48l277 -465l75 -131h4c-3 64 -6 128 -6 192v404h43v-659h-48l-277 465l-75 131h-4c3 -63 6 -123 6 -187v-409h-43zM428 -124v-36h-228v36h228z" />
    <glyph glyph-name="uni1E49" unicode="&#x1e49;" horiz-adv-x="532" 
d="M92 0v480h38l4 -74h3c49 49 99 86 165 86c99 0 145 -60 145 -184v-308h-44v302c0 102 -32 150 -110 150c-57 0 -98 -30 -157 -90v-362h-44zM385 -124v-36h-229v36h229z" />
    <glyph glyph-name="uni1E5A" unicode="&#x1e5a;" horiz-adv-x="553" 
d="M295 -114c22 0 38 -16 38 -39c0 -25 -16 -41 -38 -41c-21 0 -38 16 -38 41c0 23 17 39 38 39zM140 341h130c117 0 181 47 181 144c0 99 -64 135 -181 135h-130v-279zM330 306l181 -306h-53l-178 303h-140v-303h-46v659h188c131 0 217 -48 217 -174
c0 -105 -66 -165 -169 -179z" />
    <glyph glyph-name="uni1E5B" unicode="&#x1e5b;" horiz-adv-x="317" 
d="M92 0v480h38l4 -89h3c32 59 79 101 136 101c18 0 32 -2 48 -10l-10 -40c-16 6 -25 8 -44 8c-43 0 -94 -33 -131 -123v-327h-44zM113 -194c-22 0 -39 16 -39 41c0 23 17 39 39 39c21 0 38 -16 38 -39c0 -25 -17 -41 -38 -41z" />
    <glyph glyph-name="uni1E5C" unicode="&#x1e5c;" horiz-adv-x="553" 
d="M395 770v-36h-228v36h228zM295 -114c22 0 38 -16 38 -39c0 -25 -16 -41 -38 -41c-21 0 -38 16 -38 41c0 23 17 39 38 39zM140 341h130c117 0 181 47 181 144c0 99 -64 135 -181 135h-130v-279zM330 306l181 -306h-53l-178 303h-140v-303h-46v659h188
c131 0 217 -48 217 -174c0 -105 -66 -165 -169 -179z" />
    <glyph glyph-name="uni1E5D" unicode="&#x1e5d;" horiz-adv-x="317" 
d="M92 0v480h38l4 -89h3c32 59 79 101 136 101c18 0 32 -2 48 -10l-10 -40c-16 6 -25 8 -44 8c-43 0 -94 -33 -131 -123v-327h-44zM87 606v36h227v-36h-227zM113 -194c-22 0 -39 16 -39 41c0 23 17 39 39 39c21 0 38 -16 38 -39c0 -25 -17 -41 -38 -41z" />
    <glyph glyph-name="uni1E5E" unicode="&#x1e5e;" horiz-adv-x="553" 
d="M180 -160v36h229v-36h-229zM140 341h130c117 0 181 47 181 144c0 99 -64 135 -181 135h-130v-279zM330 306l181 -306h-53l-178 303h-140v-303h-46v659h188c131 0 217 -48 217 -174c0 -105 -66 -165 -169 -179z" />
    <glyph glyph-name="uni1E5F" unicode="&#x1e5f;" horiz-adv-x="317" 
d="M92 0v480h38l4 -89h3c32 59 79 101 136 101c18 0 32 -2 48 -10l-10 -40c-16 6 -25 8 -44 8c-43 0 -94 -33 -131 -123v-327h-44zM225 -124v-36h-229v36h229z" />
    <glyph glyph-name="uni1E60" unicode="&#x1e60;" horiz-adv-x="514" 
d="M43 87l29 32c48 -54 117 -89 194 -89c100 0 164 54 164 132c0 82 -54 109 -119 138l-100 45c-57 25 -133 66 -133 164c0 95 82 162 191 162c80 0 144 -36 184 -79l-27 -31c-38 41 -91 68 -157 68c-87 0 -145 -46 -145 -118c0 -76 66 -105 114 -127l100 -44
c73 -33 138 -74 138 -175s-83 -177 -211 -177c-96 0 -170 41 -222 99zM268 721c-22 0 -40 16 -40 41c0 23 18 39 40 39s40 -16 40 -39c0 -25 -18 -41 -40 -41z" />
    <glyph glyph-name="uni1E61" unicode="&#x1e61;" horiz-adv-x="405" 
d="M32 54l26 33c41 -34 84 -61 153 -61c75 0 114 44 114 95c0 60 -62 86 -117 106c-73 26 -153 55 -153 137c0 70 55 128 155 128c51 0 102 -21 137 -50l-24 -31c-32 24 -66 43 -115 43c-74 0 -108 -43 -108 -87c0 -53 56 -76 113 -97c75 -28 157 -53 157 -147
c0 -72 -58 -135 -162 -135c-71 0 -133 30 -176 66zM211 596c-22 0 -39 16 -39 41c0 23 17 39 39 39c21 0 38 -16 38 -39c0 -25 -17 -41 -38 -41z" />
    <glyph glyph-name="uni1E62" unicode="&#x1e62;" horiz-adv-x="514" 
d="M43 87l29 32c48 -54 117 -89 194 -89c100 0 164 54 164 132c0 82 -54 109 -119 138l-100 45c-57 25 -133 66 -133 164c0 95 82 162 191 162c80 0 144 -36 184 -79l-27 -31c-38 41 -91 68 -157 68c-87 0 -145 -46 -145 -118c0 -76 66 -105 114 -127l100 -44
c73 -33 138 -74 138 -175s-83 -177 -211 -177c-96 0 -170 41 -222 99zM265 -194c-22 0 -38 16 -38 41c0 23 16 39 38 39s38 -16 38 -39c0 -25 -16 -41 -38 -41z" />
    <glyph glyph-name="uni1E63" unicode="&#x1e63;" horiz-adv-x="405" 
d="M32 54l26 33c41 -34 84 -61 153 -61c75 0 114 44 114 95c0 60 -62 86 -117 106c-73 26 -153 55 -153 137c0 70 55 128 155 128c51 0 102 -21 137 -50l-24 -31c-32 24 -66 43 -115 43c-74 0 -108 -43 -108 -87c0 -53 56 -76 113 -97c75 -28 157 -53 157 -147
c0 -72 -58 -135 -162 -135c-71 0 -133 30 -176 66zM218 -194c-22 0 -38 16 -38 41c0 23 16 39 38 39s38 -16 38 -39c0 -25 -16 -41 -38 -41z" />
    <glyph glyph-name="uni1E6C" unicode="&#x1e6c;" horiz-adv-x="517" 
d="M236 0v619h-210v40h465v-40h-209v-619h-46zM260 -194c-22 0 -39 16 -39 41c0 23 17 39 39 39c21 0 38 -16 38 -39c0 -25 -17 -41 -38 -41z" />
    <glyph glyph-name="uni1E6D" unicode="&#x1e6d;" horiz-adv-x="312" 
d="M103 133v309h-75v34l76 4l6 139h38v-139h139v-38h-139v-313c0 -61 15 -102 81 -102c18 0 43 7 60 15l12 -36c-28 -10 -58 -18 -78 -18c-93 0 -120 59 -120 145zM201 -194c-22 0 -38 16 -38 41c0 23 16 39 38 39c21 0 38 -16 38 -39c0 -25 -17 -41 -38 -41z" />
    <glyph glyph-name="uni1E6E" unicode="&#x1e6e;" horiz-adv-x="517" 
d="M236 0v619h-210v40h465v-40h-209v-619h-46zM373 -124v-36h-229v36h229z" />
    <glyph glyph-name="uni1E6F" unicode="&#x1e6f;" horiz-adv-x="312" 
d="M103 133v309h-75v34l76 4l6 139h38v-139h139v-38h-139v-313c0 -61 15 -102 81 -102c18 0 43 7 60 15l12 -36c-28 -10 -58 -18 -78 -18c-93 0 -120 59 -120 145zM313 -124v-36h-228v36h228z" />
    <glyph glyph-name="Wgrave" unicode="&#x1e80;" horiz-adv-x="763" 
d="M174 0l-150 659h49l82 -388c16 -72 31 -144 46 -215h4c15 71 33 143 50 215l104 388h46l104 -388c17 -72 35 -143 52 -215h4c15 72 29 143 44 215l82 388h46l-148 -659h-51l-120 452c-12 52 -23 97 -35 149h-4c-11 -52 -24 -97 -36 -149l-118 -452h-51zM378 709l-109 106
h57l93 -106h-41z" />
    <glyph glyph-name="wgrave" unicode="&#x1e81;" horiz-adv-x="685" 
d="M166 0l-142 480h48l86 -311c12 -44 23 -85 33 -128h4c11 43 23 84 35 128l87 311h53l87 -311c12 -44 24 -85 36 -128h4c11 43 23 84 34 128l85 311h45l-138 -480h-58l-84 298c-14 46 -23 90 -37 137h-4c-11 -47 -23 -93 -38 -139l-83 -296h-53zM361 572l-106 136h52
l92 -136h-38z" />
    <glyph glyph-name="Wacute" unicode="&#x1e82;" horiz-adv-x="763" 
d="M174 0l-150 659h49l82 -388c16 -72 31 -144 46 -215h4c15 71 33 143 50 215l104 388h46l104 -388c17 -72 35 -143 52 -215h4c15 72 29 143 44 215l82 388h46l-148 -659h-51l-120 452c-12 52 -23 97 -35 149h-4c-11 -52 -24 -97 -36 -149l-118 -452h-51zM494 815
l-109 -106h-41l93 106h57z" />
    <glyph glyph-name="wacute" unicode="&#x1e83;" horiz-adv-x="685" 
d="M166 0l-142 480h48l86 -311c12 -44 23 -85 33 -128h4c11 43 23 84 35 128l87 311h53l87 -311c12 -44 24 -85 36 -128h4c11 43 23 84 34 128l85 311h45l-138 -480h-58l-84 298c-14 46 -23 90 -37 137h-4c-11 -47 -23 -93 -38 -139l-83 -296h-53zM432 708l-107 -136h-37
l91 136h53z" />
    <glyph glyph-name="Wdieresis" unicode="&#x1e84;" horiz-adv-x="763" 
d="M174 0l-150 659h49l82 -388c16 -72 31 -144 46 -215h4c15 71 33 143 50 215l104 388h46l104 -388c17 -72 35 -143 52 -215h4c15 72 29 143 44 215l82 388h46l-148 -659h-51l-120 452c-12 52 -23 97 -35 149h-4c-11 -52 -24 -97 -36 -149l-118 -452h-51zM303 725
c-21 0 -37 14 -37 36c0 23 16 37 37 37c20 0 36 -14 36 -37c0 -22 -16 -36 -36 -36zM460 725c-21 0 -36 14 -36 36c0 23 15 37 36 37s37 -14 37 -37c0 -22 -16 -36 -37 -36z" />
    <glyph glyph-name="wdieresis" unicode="&#x1e85;" horiz-adv-x="685" 
d="M166 0l-142 480h48l86 -311c12 -44 23 -85 33 -128h4c11 43 23 84 35 128l87 311h53l87 -311c12 -44 24 -85 36 -128h4c11 43 23 84 34 128l85 311h45l-138 -480h-58l-84 298c-14 46 -23 90 -37 137h-4c-11 -47 -23 -93 -38 -139l-83 -296h-53zM265 598
c-21 0 -37 16 -37 37c0 20 16 36 37 36c20 0 36 -16 36 -36c0 -21 -16 -37 -36 -37zM422 598c-21 0 -36 16 -36 37c0 20 15 36 36 36s37 -16 37 -36c0 -21 -16 -37 -37 -37z" />
    <glyph glyph-name="uni1E8E" unicode="&#x1e8e;" horiz-adv-x="440" 
d="M197 0v267l-198 392h49l100 -206c23 -48 45 -94 70 -142h4c25 48 50 94 72 142l100 206h47l-198 -392v-267h-46zM220 721c-22 0 -40 16 -40 41c0 23 18 39 40 39s40 -16 40 -39c0 -25 -18 -41 -40 -41z" />
    <glyph glyph-name="uni1E8F" unicode="&#x1e8f;" horiz-adv-x="436" 
d="M34 -170c10 -4 25 -8 39 -8c59 0 99 54 123 127l13 42l-197 489h48l116 -302c15 -40 34 -92 52 -134h4c15 42 31 94 44 134l103 302h45l-190 -540c-27 -80 -75 -159 -161 -159c-18 0 -36 4 -49 10zM229 596c-21 0 -38 16 -38 41c0 23 17 39 38 39c22 0 38 -16 38 -39
c0 -25 -16 -41 -38 -41z" />
    <glyph glyph-name="uni1E92" unicode="&#x1e92;" horiz-adv-x="531" 
d="M46 0v27l380 592h-346v40h403v-27l-379 -592h383v-40h-441zM278 -194c-22 0 -39 16 -39 41c0 23 17 39 39 39c21 0 38 -16 38 -39c0 -25 -17 -41 -38 -41z" />
    <glyph glyph-name="uni1E93" unicode="&#x1e93;" horiz-adv-x="404" 
d="M27 0v24l284 418h-253v38h310v-23l-283 -418h293v-39h-351zM218 -194c-22 0 -38 16 -38 41c0 23 16 39 38 39c21 0 38 -16 38 -39c0 -25 -17 -41 -38 -41z" />
    <glyph glyph-name="uni1E97" unicode="&#x1e97;" horiz-adv-x="312" 
d="M103 133v309h-75v34l76 4l6 139h38v-139h139v-38h-139v-313c0 -61 15 -102 81 -102c18 0 43 7 60 15l12 -36c-28 -10 -58 -18 -78 -18c-93 0 -120 59 -120 145zM51 731c-21 0 -36 16 -36 37c0 20 15 36 36 36s37 -16 37 -36c0 -21 -16 -37 -37 -37zM209 731
c-21 0 -37 16 -37 37c0 20 16 36 37 36s37 -16 37 -36c0 -21 -16 -37 -37 -37z" />
    <glyph glyph-name="uni1E9E" unicode="&#x1e9e;" horiz-adv-x="637" 
d="M94 0v422c0 142 82 249 241 249c101 0 160 -55 199 -138l-155 -170c163 -26 217 -103 217 -196c0 -102 -78 -179 -183 -179c-70 0 -135 29 -177 79l30 32c42 -48 87 -70 146 -70c86 0 135 58 135 137c0 75 -38 136 -216 164l-3 35l153 170c-25 53 -73 95 -148 95
c-117 0 -193 -68 -193 -221v-409h-46z" />
    <glyph glyph-name="uni1EA0" unicode="&#x1ea0;" horiz-adv-x="519" 
d="M259 -114c22 0 38 -16 38 -39c0 -25 -16 -41 -38 -41c-21 0 -38 16 -38 41c0 23 17 39 38 39zM142 265h234l-42 123c-26 78 -50 147 -73 228h-4c-23 -81 -46 -150 -73 -228zM515 0h-49l-77 226h-261l-77 -226h-47l233 659h46z" />
    <glyph glyph-name="uni1EA1" unicode="&#x1ea1;" horiz-adv-x="499" 
d="M65 120c0 106 97 157 310 181c2 73 -19 152 -113 152c-65 0 -121 -32 -153 -56l-20 33c34 24 100 62 178 62c114 0 152 -82 152 -185v-307h-37l-5 62h-2c-49 -39 -107 -74 -170 -74c-76 0 -140 41 -140 132zM111 122c0 -69 46 -96 101 -96s104 27 163 78v163
c-197 -23 -264 -69 -264 -145zM246 -194c-21 0 -38 16 -38 41c0 23 17 39 38 39c22 0 38 -16 38 -39c0 -25 -16 -41 -38 -41z" />
    <glyph glyph-name="uni1EA2" unicode="&#x1ea2;" horiz-adv-x="519" 
d="M236 702l-9 27c37 11 64 26 64 54c0 31 -31 46 -86 48l4 32c66 -2 121 -24 121 -74c0 -52 -47 -74 -94 -87zM142 265h234l-42 123c-26 78 -50 147 -73 228h-4c-23 -81 -46 -150 -73 -228zM466 0l-77 226h-261l-77 -226h-47l233 659h46l232 -659h-49z" />
    <glyph glyph-name="uni1EA3" unicode="&#x1ea3;" horiz-adv-x="499" 
d="M65 120c0 106 97 157 310 181c2 73 -19 152 -113 152c-65 0 -121 -32 -153 -56l-20 33c34 24 100 62 178 62c114 0 152 -82 152 -185v-307h-37l-5 62h-2c-49 -39 -107 -74 -170 -74c-76 0 -140 41 -140 132zM111 122c0 -69 46 -96 101 -96s104 27 163 78v163
c-197 -23 -264 -69 -264 -145zM239 551l-8 26c36 11 63 26 63 55c0 30 -31 46 -85 48l4 32c66 -3 120 -24 120 -75c0 -52 -46 -73 -94 -86z" />
    <glyph glyph-name="uni1EA4" unicode="&#x1ea4;" horiz-adv-x="519" 
d="M457 876l-86 -106h-33l72 106h47zM257 775l-69 -66h-39l90 100h40l91 -100h-39l-70 66h-4zM142 265h234l-42 123c-26 78 -50 147 -73 228h-4c-23 -81 -46 -150 -73 -228zM466 0l-77 226h-261l-77 -226h-47l233 659h46l232 -659h-49z" />
    <glyph glyph-name="uni1EA5" unicode="&#x1ea5;" horiz-adv-x="499" 
d="M65 120c0 106 97 157 310 181c2 73 -19 152 -113 152c-65 0 -121 -32 -153 -56l-20 33c34 24 100 62 178 62c114 0 152 -82 152 -185v-307h-37l-5 62h-2c-49 -39 -107 -74 -170 -74c-76 0 -140 41 -140 132zM111 122c0 -69 46 -96 101 -96s104 27 163 78v163
c-197 -23 -264 -69 -264 -145zM159 572l84 114h39l84 -114h-36l-65 78h-4l-66 -78h-36zM341 637l76 111h47l-91 -111h-32z" />
    <glyph glyph-name="uni1EA6" unicode="&#x1ea6;" horiz-adv-x="519" 
d="M411 770h-33l-86 106h48zM257 775l-69 -66h-39l90 100h40l91 -100h-39l-70 66h-4zM142 265h234l-42 123c-26 78 -50 147 -73 228h-4c-23 -81 -46 -150 -73 -228zM466 0l-77 226h-261l-77 -226h-47l233 659h46l232 -659h-49z" />
    <glyph glyph-name="uni1EA7" unicode="&#x1ea7;" horiz-adv-x="499" 
d="M65 120c0 106 97 157 310 181c2 73 -19 152 -113 152c-65 0 -121 -32 -153 -56l-20 33c34 24 100 62 178 62c114 0 152 -82 152 -185v-307h-37l-5 62h-2c-49 -39 -107 -74 -170 -74c-76 0 -140 41 -140 132zM111 122c0 -69 46 -96 101 -96s104 27 163 78v163
c-197 -23 -264 -69 -264 -145zM159 572l84 114h39l84 -114h-36l-65 78h-4l-66 -78h-36zM358 748l77 -111h-33l-90 111h46z" />
    <glyph glyph-name="uni1EA8" unicode="&#x1ea8;" horiz-adv-x="519" 
d="M361 757l-10 27c29 7 51 19 51 42c0 30 -24 40 -73 42l6 31c59 -3 105 -21 105 -68c0 -46 -41 -65 -79 -74zM257 775l-69 -66h-39l90 100h40l91 -100h-39l-70 66h-4zM142 265h234l-42 123c-26 78 -50 147 -73 228h-4c-23 -81 -46 -150 -73 -228zM466 0l-77 226h-261
l-77 -226h-47l233 659h46l232 -659h-49z" />
    <glyph glyph-name="uni1EA9" unicode="&#x1ea9;" horiz-adv-x="499" 
d="M65 120c0 106 97 157 310 181c2 73 -19 152 -113 152c-65 0 -121 -32 -153 -56l-20 33c34 24 100 62 178 62c114 0 152 -82 152 -185v-307h-37l-5 62h-2c-49 -39 -107 -74 -170 -74c-76 0 -140 41 -140 132zM111 122c0 -69 46 -96 101 -96s104 27 163 78v163
c-197 -23 -264 -69 -264 -145zM159 572l84 114h39l84 -114h-36l-65 78h-4l-66 -78h-36zM365 628l-8 25c29 10 50 23 50 46c0 30 -23 44 -72 46l4 29c59 -2 106 -22 106 -70c0 -46 -42 -64 -80 -76z" />
    <glyph glyph-name="uni1EAA" unicode="&#x1eaa;" horiz-adv-x="519" 
d="M352 924h29c-3 -38 -24 -81 -71 -81c-48 0 -67 49 -102 49c-22 0 -37 -19 -42 -49h-29c3 38 25 81 71 81c48 0 68 -49 103 -49c21 0 37 19 41 49zM239 809h40l91 -100h-39l-70 66h-4l-69 -66h-39zM142 265h234l-42 123c-26 78 -50 147 -73 228h-4
c-23 -81 -46 -150 -73 -228zM466 0l-77 226h-261l-77 -226h-47l233 659h46l232 -659h-49z" />
    <glyph glyph-name="uni1EAB" unicode="&#x1eab;" horiz-adv-x="499" 
d="M65 120c0 106 97 157 310 181c2 73 -19 152 -113 152c-65 0 -121 -32 -153 -56l-20 33c34 24 100 62 178 62c114 0 152 -82 152 -185v-307h-37l-5 62h-2c-49 -39 -107 -74 -170 -74c-76 0 -140 41 -140 132zM111 122c0 -69 46 -96 101 -96s104 27 163 78v163
c-197 -23 -264 -69 -264 -145zM151 570l91 100h41l91 -100h-37l-72 69h-4l-73 -69h-37zM170 706h-29c3 38 24 77 71 77c49 0 67 -45 102 -45c21 0 37 15 41 45h29c-3 -38 -24 -77 -71 -77c-48 0 -67 45 -102 45c-21 0 -37 -15 -41 -45z" />
    <glyph glyph-name="uni1EAC" unicode="&#x1eac;" horiz-adv-x="519" 
d="M257 781l-75 -72h-40l96 106h42l96 -106h-40l-75 72h-4zM259 -114c22 0 38 -16 38 -39c0 -25 -16 -41 -38 -41c-21 0 -38 16 -38 41c0 23 17 39 38 39zM142 265h234l-42 123c-26 78 -50 147 -73 228h-4c-23 -81 -46 -150 -73 -228zM515 0h-49l-77 226h-261l-77 -226h-47
l233 659h46z" />
    <glyph glyph-name="uni1EAD" unicode="&#x1ead;" horiz-adv-x="499" 
d="M65 120c0 106 97 157 310 181c2 73 -19 152 -113 152c-65 0 -121 -32 -153 -56l-20 33c34 24 100 62 178 62c114 0 152 -82 152 -185v-307h-37l-5 62h-2c-49 -39 -107 -74 -170 -74c-76 0 -140 41 -140 132zM111 122c0 -69 46 -96 101 -96s104 27 163 78v163
c-197 -23 -264 -69 -264 -145zM149 572l94 136h39l94 -136h-37l-74 99h-4l-75 -99h-37zM246 -194c-21 0 -38 16 -38 41c0 23 17 39 38 39c22 0 38 -16 38 -39c0 -25 -16 -41 -38 -41z" />
    <glyph glyph-name="uni1EAE" unicode="&#x1eae;" horiz-adv-x="519" 
d="M352 896l-94 -97h-34l80 97h48zM341 811h31c-6 -45 -41 -100 -113 -100s-107 55 -113 100h31c8 -35 31 -69 82 -69s74 34 82 69zM142 265h234l-42 123c-26 78 -50 147 -73 228h-4c-23 -81 -46 -150 -73 -228zM466 0l-77 226h-261l-77 -226h-47l233 659h46l232 -659h-49z
" />
    <glyph glyph-name="uni1EAF" unicode="&#x1eaf;" horiz-adv-x="499" 
d="M65 120c0 106 97 157 310 181c2 73 -19 152 -113 152c-65 0 -121 -32 -153 -56l-20 33c34 24 100 62 178 62c114 0 152 -82 152 -185v-307h-37l-5 62h-2c-49 -39 -107 -74 -170 -74c-76 0 -140 41 -140 132zM111 122c0 -69 46 -96 101 -96s104 27 163 78v163
c-197 -23 -264 -69 -264 -145zM231 667l73 110h47l-87 -110h-33zM263 576c-82 0 -114 68 -119 119h31c6 -44 33 -88 88 -88c54 0 82 44 88 88h30c-5 -51 -37 -119 -118 -119z" />
    <glyph glyph-name="uni1EB0" unicode="&#x1eb0;" horiz-adv-x="519" 
d="M295 799h-34l-95 97h49zM341 811h31c-6 -45 -41 -100 -113 -100s-107 55 -113 100h31c8 -35 31 -69 82 -69s74 34 82 69zM142 265h234l-42 123c-26 78 -50 147 -73 228h-4c-23 -81 -46 -150 -73 -228zM466 0l-77 226h-261l-77 -226h-47l233 659h46l232 -659h-49z" />
    <glyph glyph-name="uni1EB1" unicode="&#x1eb1;" horiz-adv-x="499" 
d="M65 120c0 106 97 157 310 181c2 73 -19 152 -113 152c-65 0 -121 -32 -153 -56l-20 33c34 24 100 62 178 62c114 0 152 -82 152 -185v-307h-37l-5 62h-2c-49 -39 -107 -74 -170 -74c-76 0 -140 41 -140 132zM111 122c0 -69 46 -96 101 -96s104 27 163 78v163
c-197 -23 -264 -69 -264 -145zM221 777l74 -110h-34l-87 110h47zM263 576c-82 0 -114 68 -119 119h31c6 -44 33 -88 88 -88c54 0 82 44 88 88h30c-5 -51 -37 -119 -118 -119z" />
    <glyph glyph-name="uni1EB2" unicode="&#x1eb2;" horiz-adv-x="519" 
d="M242 797l-10 27c28 8 51 19 51 42c0 30 -24 40 -73 43l6 30c59 -2 105 -20 105 -68c0 -46 -41 -64 -79 -74zM341 811h31c-6 -45 -41 -100 -113 -100s-107 55 -113 100h31c8 -35 31 -69 82 -69s74 34 82 69zM142 265h234l-42 123c-26 78 -50 147 -73 228h-4
c-23 -81 -46 -150 -73 -228zM466 0l-77 226h-261l-77 -226h-47l233 659h46l232 -659h-49z" />
    <glyph glyph-name="uni1EB3" unicode="&#x1eb3;" horiz-adv-x="499" 
d="M65 120c0 106 97 157 310 181c2 73 -19 152 -113 152c-65 0 -121 -32 -153 -56l-20 33c34 24 100 62 178 62c114 0 152 -82 152 -185v-307h-37l-5 62h-2c-49 -39 -107 -74 -170 -74c-76 0 -140 41 -140 132zM111 122c0 -69 46 -96 101 -96s104 27 163 78v163
c-197 -23 -264 -69 -264 -145zM263 576c-82 0 -114 68 -119 119h31c6 -44 33 -88 88 -88c54 0 82 44 88 88h30c-5 -51 -37 -119 -118 -119zM241 675l-8 26c28 9 49 22 49 45c0 31 -23 44 -71 46l3 29c59 -2 106 -22 106 -69s-42 -65 -79 -77z" />
    <glyph glyph-name="uni1EB4" unicode="&#x1eb4;" horiz-adv-x="519" 
d="M352 924h29c-3 -38 -24 -81 -71 -81c-48 0 -67 49 -102 49c-22 0 -37 -19 -42 -49h-29c3 38 25 81 71 81c48 0 68 -49 103 -49c21 0 37 19 41 49zM146 811h31c8 -35 31 -69 82 -69s74 34 82 69h31c-6 -45 -41 -100 -113 -100s-107 55 -113 100zM142 265h234l-42 123
c-26 78 -50 147 -73 228h-4c-23 -81 -46 -150 -73 -228zM466 0l-77 226h-261l-77 -226h-47l233 659h46l232 -659h-49z" />
    <glyph glyph-name="uni1EB5" unicode="&#x1eb5;" horiz-adv-x="499" 
d="M65 120c0 106 97 157 310 181c2 73 -19 152 -113 152c-65 0 -121 -32 -153 -56l-20 33c34 24 100 62 178 62c114 0 152 -82 152 -185v-307h-37l-5 62h-2c-49 -39 -107 -74 -170 -74c-76 0 -140 41 -140 132zM111 122c0 -69 46 -96 101 -96s104 27 163 78v163
c-197 -23 -264 -69 -264 -145zM263 576c-82 0 -112 52 -118 99h32c6 -35 33 -68 86 -68c52 0 79 33 85 68h32c-6 -47 -36 -99 -117 -99zM141 706c3 38 24 77 71 77c49 0 67 -45 102 -45c21 0 37 15 41 45h29c-3 -38 -24 -77 -71 -77c-48 0 -67 45 -102 45
c-21 0 -37 -15 -41 -45h-29z" />
    <glyph glyph-name="uni1EB6" unicode="&#x1eb6;" horiz-adv-x="519" 
d="M342 815h32c-6 -46 -39 -104 -115 -104c-75 0 -109 58 -115 104h33c6 -35 31 -72 82 -72c52 0 77 37 83 72zM259 -114c22 0 38 -16 38 -39c0 -25 -16 -41 -38 -41c-21 0 -38 16 -38 41c0 23 17 39 38 39zM142 265h234l-42 123c-26 78 -50 147 -73 228h-4
c-23 -81 -46 -150 -73 -228zM515 0h-49l-77 226h-261l-77 -226h-47l233 659h46z" />
    <glyph glyph-name="uni1EB7" unicode="&#x1eb7;" horiz-adv-x="499" 
d="M65 120c0 106 97 157 310 181c2 73 -19 152 -113 152c-65 0 -121 -32 -153 -56l-20 33c34 24 100 62 178 62c114 0 152 -82 152 -185v-307h-37l-5 62h-2c-49 -39 -107 -74 -170 -74c-76 0 -140 41 -140 132zM111 122c0 -69 46 -96 101 -96s104 27 163 78v163
c-197 -23 -264 -69 -264 -145zM263 576c-82 0 -114 68 -119 119h33c5 -43 32 -87 86 -87c53 0 80 44 85 87h33c-5 -51 -37 -119 -118 -119zM246 -194c-21 0 -38 16 -38 41c0 23 17 39 38 39c22 0 38 -16 38 -39c0 -25 -16 -41 -38 -41z" />
    <glyph glyph-name="uni1EB8" unicode="&#x1eb8;" horiz-adv-x="507" 
d="M94 0v659h360v-40h-314v-249h264v-40h-264v-290h324v-40h-370zM293 -194c-22 0 -38 16 -38 41c0 23 16 39 38 39s38 -16 38 -39c0 -25 -16 -41 -38 -41z" />
    <glyph glyph-name="uni1EB9" unicode="&#x1eb9;" horiz-adv-x="483" 
d="M52 239c0 157 102 253 209 253c114 0 184 -81 184 -222c0 -12 0 -24 -2 -36h-346c2 -121 73 -208 181 -208c52 0 93 17 129 43l18 -34c-38 -23 -81 -47 -151 -47c-123 0 -222 94 -222 251zM97 268h306c0 123 -55 186 -141 186c-82 0 -155 -71 -165 -186zM259 -194
c-22 0 -39 16 -39 41c0 23 17 39 39 39c21 0 38 -16 38 -39c0 -25 -17 -41 -38 -41z" />
    <glyph glyph-name="uni1EBA" unicode="&#x1eba;" horiz-adv-x="507" 
d="M94 0v659h360v-40h-314v-249h264v-40h-264v-290h324v-40h-370zM255 702l-9 27c37 11 64 26 64 54c0 31 -31 46 -86 48l4 32c66 -2 121 -24 121 -74c0 -52 -46 -74 -94 -87z" />
    <glyph glyph-name="uni1EBB" unicode="&#x1ebb;" horiz-adv-x="483" 
d="M52 239c0 157 102 253 209 253c114 0 184 -81 184 -222c0 -12 0 -24 -2 -36h-346c2 -121 73 -208 181 -208c52 0 93 17 129 43l18 -34c-38 -23 -81 -47 -151 -47c-123 0 -222 94 -222 251zM97 268h306c0 123 -55 186 -141 186c-82 0 -155 -71 -165 -186zM238 551l-9 26
c37 11 64 26 64 55c0 30 -31 46 -86 48l4 32c66 -3 121 -24 121 -75c0 -52 -47 -73 -94 -86z" />
    <glyph glyph-name="uni1EBC" unicode="&#x1ebc;" horiz-adv-x="507" 
d="M94 0v659h360v-40h-314v-249h264v-40h-264v-290h324v-40h-370zM337 716c-52 0 -78 57 -118 57c-22 0 -37 -23 -42 -57h-28c3 45 26 92 71 92c52 0 77 -56 118 -56c21 0 37 22 42 56h28c-3 -44 -26 -92 -71 -92z" />
    <glyph glyph-name="uni1EBD" unicode="&#x1ebd;" horiz-adv-x="483" 
d="M52 239c0 157 102 253 209 253c114 0 184 -81 184 -222c0 -12 0 -24 -2 -36h-346c2 -121 73 -208 181 -208c52 0 93 17 129 43l18 -34c-38 -23 -81 -47 -151 -47c-123 0 -222 94 -222 251zM97 268h306c0 123 -55 186 -141 186c-82 0 -155 -71 -165 -186zM137 581
c3 43 21 89 69 89c49 0 77 -55 111 -55c22 0 33 21 38 55h30c-3 -42 -21 -89 -69 -89s-75 55 -111 55c-21 0 -33 -20 -37 -55h-31z" />
    <glyph glyph-name="uni1EBE" unicode="&#x1ebe;" horiz-adv-x="507" 
d="M94 0v659h360v-40h-314v-249h264v-40h-264v-290h324v-40h-370zM357 770l72 106h47l-86 -106h-33zM168 709l90 100h40l91 -100h-39l-70 66h-4l-69 -66h-39z" />
    <glyph glyph-name="uni1EBF" unicode="&#x1ebf;" horiz-adv-x="483" 
d="M52 239c0 157 102 253 209 253c114 0 184 -81 184 -222c0 -12 0 -24 -2 -36h-346c2 -121 73 -208 181 -208c52 0 93 17 129 43l18 -34c-38 -23 -81 -47 -151 -47c-123 0 -222 94 -222 251zM97 268h306c0 123 -55 186 -141 186c-82 0 -155 -71 -165 -186zM158 572l84 114
h39l83 -114h-35l-66 78h-4l-65 -78h-36zM339 637l77 111h47l-91 -111h-33z" />
    <glyph glyph-name="uni1EC0" unicode="&#x1ec0;" horiz-adv-x="507" 
d="M94 0v659h360v-40h-314v-249h264v-40h-264v-290h324v-40h-370zM359 876l71 -106h-33l-86 106h48zM168 709l90 100h40l91 -100h-39l-70 66h-4l-69 -66h-39z" />
    <glyph glyph-name="uni1EC1" unicode="&#x1ec1;" horiz-adv-x="483" 
d="M52 239c0 157 102 253 209 253c114 0 184 -81 184 -222c0 -12 0 -24 -2 -36h-346c2 -121 73 -208 181 -208c52 0 93 17 129 43l18 -34c-38 -23 -81 -47 -151 -47c-123 0 -222 94 -222 251zM97 268h306c0 123 -55 186 -141 186c-82 0 -155 -71 -165 -186zM158 572l84 114
h39l83 -114h-35l-66 78h-4l-65 -78h-36zM357 748l77 -111h-33l-91 111h47z" />
    <glyph glyph-name="uni1EC2" unicode="&#x1ec2;" horiz-adv-x="507" 
d="M94 0v659h360v-40h-314v-249h264v-40h-264v-290h324v-40h-370zM380 757l-10 27c29 7 51 19 51 42c0 30 -24 40 -73 42l6 31c59 -3 105 -21 105 -68c0 -46 -41 -65 -79 -74zM168 709l90 100h40l91 -100h-39l-70 66h-4l-69 -66h-39z" />
    <glyph glyph-name="uni1EC3" unicode="&#x1ec3;" horiz-adv-x="483" 
d="M52 239c0 157 102 253 209 253c114 0 184 -81 184 -222c0 -12 0 -24 -2 -36h-346c2 -121 73 -208 181 -208c52 0 93 17 129 43l18 -34c-38 -23 -81 -47 -151 -47c-123 0 -222 94 -222 251zM97 268h306c0 123 -55 186 -141 186c-82 0 -155 -71 -165 -186zM158 572l84 114
h39l83 -114h-35l-66 78h-4l-65 -78h-36zM364 628l-8 25c28 10 49 23 49 46c0 30 -23 44 -71 46l3 29c59 -2 106 -22 106 -70c0 -46 -41 -64 -79 -76z" />
    <glyph glyph-name="uni1EC4" unicode="&#x1ec4;" horiz-adv-x="507" 
d="M94 0v659h360v-40h-314v-249h264v-40h-264v-290h324v-40h-370zM168 709l90 100h40l91 -100h-39l-70 66h-4l-69 -66h-39zM186 843h-30c3 38 25 81 72 81c48 0 67 -49 102 -49c21 0 37 19 41 49h29c-3 -38 -24 -81 -71 -81c-48 0 -67 49 -102 49c-22 0 -37 -19 -41 -49z
" />
    <glyph glyph-name="uni1EC5" unicode="&#x1ec5;" horiz-adv-x="483" 
d="M52 239c0 157 102 253 209 253c114 0 184 -81 184 -222c0 -12 0 -24 -2 -36h-346c2 -121 73 -208 181 -208c52 0 93 17 129 43l18 -34c-38 -23 -81 -47 -151 -47c-123 0 -222 94 -222 251zM97 268h306c0 123 -55 186 -141 186c-82 0 -155 -71 -165 -186zM150 570l91 100
h41l90 -100h-36l-73 69h-4l-73 -69h-36zM169 706h-29c3 38 24 77 71 77c48 0 67 -45 102 -45c21 0 37 15 41 45h29c-3 -38 -24 -77 -71 -77c-49 0 -67 45 -102 45c-22 0 -37 -15 -41 -45z" />
    <glyph glyph-name="uni1EC6" unicode="&#x1ec6;" horiz-adv-x="507" 
d="M94 0v659h360v-40h-314v-249h264v-40h-264v-290h324v-40h-370zM201 709h-40l96 106h42l96 -106h-40l-75 72h-4zM293 -194c-22 0 -38 16 -38 41c0 23 16 39 38 39s38 -16 38 -39c0 -25 -16 -41 -38 -41z" />
    <glyph glyph-name="uni1EC7" unicode="&#x1ec7;" horiz-adv-x="483" 
d="M52 239c0 157 102 253 209 253c114 0 184 -81 184 -222c0 -12 0 -24 -2 -36h-346c2 -121 73 -208 181 -208c52 0 93 17 129 43l18 -34c-38 -23 -81 -47 -151 -47c-123 0 -222 94 -222 251zM97 268h306c0 123 -55 186 -141 186c-82 0 -155 -71 -165 -186zM148 572l94 136
h39l94 -136h-37l-75 99h-4l-75 -99h-36zM258 -194c-22 0 -38 16 -38 41c0 23 16 39 38 39c21 0 38 -16 38 -39c0 -25 -17 -41 -38 -41z" />
    <glyph glyph-name="uni1EC8" unicode="&#x1ec8;" horiz-adv-x="233" 
d="M94 0v659h46v-659h-46zM93 702l-8 27c36 11 63 26 63 54c0 31 -31 46 -85 48l4 32c66 -2 120 -24 120 -74c0 -52 -46 -74 -94 -87z" />
    <glyph glyph-name="uni1EC9" unicode="&#x1ec9;" horiz-adv-x="229" 
d="M92 0v480h44v-480h-44zM91 551l-9 26c37 11 64 26 64 55c0 30 -31 46 -86 48l4 32c66 -3 121 -24 121 -75c0 -52 -46 -73 -94 -86z" />
    <glyph glyph-name="uni1ECA" unicode="&#x1eca;" horiz-adv-x="233" 
d="M94 0v659h46v-659h-46zM118 -194c-22 0 -39 16 -39 41c0 23 17 39 39 39c21 0 38 -16 38 -39c0 -25 -17 -41 -38 -41z" />
    <glyph glyph-name="uni1ECB" unicode="&#x1ecb;" horiz-adv-x="229" 
d="M115 596c-22 0 -40 16 -40 39c0 25 18 40 40 40s40 -15 40 -40c0 -23 -18 -39 -40 -39zM92 0v480h44v-480h-44zM115 -194c-21 0 -38 16 -38 41c0 23 17 39 38 39c22 0 38 -16 38 -39c0 -25 -16 -41 -38 -41z" />
    <glyph glyph-name="uni1ECC" unicode="&#x1ecc;" horiz-adv-x="645" 
d="M323 -12c-159 0 -272 135 -272 344c0 208 113 339 272 339c158 0 271 -131 271 -339c0 -209 -113 -344 -271 -344zM323 30c133 0 223 119 223 302c0 182 -90 297 -223 297c-134 0 -224 -115 -224 -297c0 -183 90 -302 224 -302zM323 -194c-22 0 -38 16 -38 41
c0 23 16 39 38 39c21 0 38 -16 38 -39c0 -25 -17 -41 -38 -41z" />
    <glyph glyph-name="uni1ECD" unicode="&#x1ecd;" horiz-adv-x="535" 
d="M52 239c0 161 100 253 215 253c116 0 216 -92 216 -253c0 -159 -100 -251 -216 -251c-115 0 -215 92 -215 251zM98 239c0 -126 72 -212 169 -212s170 86 170 212c0 127 -73 214 -170 214s-169 -87 -169 -214zM268 -194c-21 0 -38 16 -38 41c0 23 17 39 38 39
c22 0 38 -16 38 -39c0 -25 -16 -41 -38 -41z" />
    <glyph glyph-name="uni1ECE" unicode="&#x1ece;" horiz-adv-x="645" 
d="M323 -12c-159 0 -272 135 -272 344c0 208 113 339 272 339c158 0 271 -131 271 -339c0 -209 -113 -344 -271 -344zM323 30c133 0 223 119 223 302c0 182 -90 297 -223 297c-134 0 -224 -115 -224 -297c0 -183 90 -302 224 -302zM299 702l-8 27c36 11 63 26 63 54
c0 31 -31 46 -85 48l4 32c66 -2 120 -24 120 -74c0 -52 -46 -74 -94 -87z" />
    <glyph glyph-name="uni1ECF" unicode="&#x1ecf;" horiz-adv-x="535" 
d="M52 239c0 161 100 253 215 253c116 0 216 -92 216 -253c0 -159 -100 -251 -216 -251c-115 0 -215 92 -215 251zM98 239c0 -126 72 -212 169 -212s170 86 170 212c0 127 -73 214 -170 214s-169 -87 -169 -214zM244 551l-9 26c37 11 64 26 64 55c0 30 -31 46 -85 48l3 32
c66 -3 121 -24 121 -75c0 -52 -46 -73 -94 -86z" />
    <glyph glyph-name="uni1ED0" unicode="&#x1ed0;" horiz-adv-x="645" 
d="M323 -12c-159 0 -272 135 -272 344c0 208 113 339 272 339c158 0 271 -131 271 -339c0 -209 -113 -344 -271 -344zM323 30c133 0 223 119 223 302c0 182 -90 297 -223 297c-134 0 -224 -115 -224 -297c0 -183 90 -302 224 -302zM401 770l72 106h47l-86 -106h-33zM212 709
l91 100h40l90 -100h-39l-69 66h-4l-70 -66h-39z" />
    <glyph glyph-name="uni1ED1" unicode="&#x1ed1;" horiz-adv-x="535" 
d="M52 239c0 161 100 253 215 253c116 0 216 -92 216 -253c0 -159 -100 -251 -216 -251c-115 0 -215 92 -215 251zM98 239c0 -126 72 -212 169 -212s170 86 170 212c0 127 -73 214 -170 214s-169 -87 -169 -214zM164 572l84 114h39l83 -114h-35l-66 78h-4l-65 -78h-36z
M345 637l77 111h47l-91 -111h-33z" />
    <glyph glyph-name="uni1ED2" unicode="&#x1ed2;" horiz-adv-x="645" 
d="M323 -12c-159 0 -272 135 -272 344c0 208 113 339 272 339c158 0 271 -131 271 -339c0 -209 -113 -344 -271 -344zM323 30c133 0 223 119 223 302c0 182 -90 297 -223 297c-134 0 -224 -115 -224 -297c0 -183 90 -302 224 -302zM403 876l72 -106h-33l-86 106h47zM212 709
l91 100h40l90 -100h-39l-69 66h-4l-70 -66h-39z" />
    <glyph glyph-name="uni1ED3" unicode="&#x1ed3;" horiz-adv-x="535" 
d="M52 239c0 161 100 253 215 253c116 0 216 -92 216 -253c0 -159 -100 -251 -216 -251c-115 0 -215 92 -215 251zM98 239c0 -126 72 -212 169 -212s170 86 170 212c0 127 -73 214 -170 214s-169 -87 -169 -214zM164 572l84 114h39l83 -114h-35l-66 78h-4l-65 -78h-36z
M363 748l77 -111h-33l-90 111h46z" />
    <glyph glyph-name="uni1ED4" unicode="&#x1ed4;" horiz-adv-x="645" 
d="M323 -12c-159 0 -272 135 -272 344c0 208 113 339 272 339c158 0 271 -131 271 -339c0 -209 -113 -344 -271 -344zM323 30c133 0 223 119 223 302c0 182 -90 297 -223 297c-134 0 -224 -115 -224 -297c0 -183 90 -302 224 -302zM425 757l-11 27c29 7 52 19 52 42
c0 30 -25 40 -73 42l5 31c59 -3 106 -21 106 -68c0 -46 -42 -65 -79 -74zM212 709l91 100h40l90 -100h-39l-69 66h-4l-70 -66h-39z" />
    <glyph glyph-name="uni1ED5" unicode="&#x1ed5;" horiz-adv-x="535" 
d="M52 239c0 161 100 253 215 253c116 0 216 -92 216 -253c0 -159 -100 -251 -216 -251c-115 0 -215 92 -215 251zM98 239c0 -126 72 -212 169 -212s170 86 170 212c0 127 -73 214 -170 214s-169 -87 -169 -214zM164 572l84 114h39l83 -114h-35l-66 78h-4l-65 -78h-36z
M370 628l-8 25c29 10 49 23 49 46c0 30 -22 44 -71 46l4 29c59 -2 105 -22 105 -70c0 -46 -41 -64 -79 -76z" />
    <glyph glyph-name="uni1ED6" unicode="&#x1ed6;" horiz-adv-x="645" 
d="M323 -12c-159 0 -272 135 -272 344c0 208 113 339 272 339c158 0 271 -131 271 -339c0 -209 -113 -344 -271 -344zM323 30c133 0 223 119 223 302c0 182 -90 297 -223 297c-134 0 -224 -115 -224 -297c0 -183 90 -302 224 -302zM212 709l91 100h40l90 -100h-39l-69 66h-4
l-70 -66h-39zM230 843h-29c3 38 24 81 71 81c48 0 67 -49 102 -49c22 0 37 19 41 49h29c-2 -38 -24 -81 -71 -81c-48 0 -67 49 -102 49c-21 0 -37 -19 -41 -49z" />
    <glyph glyph-name="uni1ED7" unicode="&#x1ed7;" horiz-adv-x="535" 
d="M52 239c0 161 100 253 215 253c116 0 216 -92 216 -253c0 -159 -100 -251 -216 -251c-115 0 -215 92 -215 251zM98 239c0 -126 72 -212 169 -212s170 86 170 212c0 127 -73 214 -170 214s-169 -87 -169 -214zM156 570l91 100h41l90 -100h-36l-73 69h-4l-72 -69h-37z
M175 706h-29c3 38 24 77 71 77c48 0 67 -45 102 -45c21 0 37 15 41 45h29c-3 -38 -24 -77 -71 -77c-49 0 -67 45 -102 45c-21 0 -37 -15 -41 -45z" />
    <glyph glyph-name="uni1ED8" unicode="&#x1ed8;" horiz-adv-x="645" 
d="M323 -12c-159 0 -272 135 -272 344c0 208 113 339 272 339c158 0 271 -131 271 -339c0 -209 -113 -344 -271 -344zM323 30c133 0 223 119 223 302c0 182 -90 297 -223 297c-134 0 -224 -115 -224 -297c0 -183 90 -302 224 -302zM246 709h-40l96 106h42l96 -106h-40
l-75 72h-4zM323 -194c-22 0 -38 16 -38 41c0 23 16 39 38 39c21 0 38 -16 38 -39c0 -25 -17 -41 -38 -41z" />
    <glyph glyph-name="uni1ED9" unicode="&#x1ed9;" horiz-adv-x="535" 
d="M52 239c0 161 100 253 215 253c116 0 216 -92 216 -253c0 -159 -100 -251 -216 -251c-115 0 -215 92 -215 251zM98 239c0 -126 72 -212 169 -212s170 86 170 212c0 127 -73 214 -170 214s-169 -87 -169 -214zM154 572l94 136h39l94 -136h-37l-75 99h-4l-75 -99h-36z
M268 -194c-21 0 -38 16 -38 41c0 23 17 39 38 39c22 0 38 -16 38 -39c0 -25 -16 -41 -38 -41z" />
    <glyph glyph-name="uni1EDA" unicode="&#x1eda;" horiz-adv-x="645" 
d="M435 815l-109 -106h-41l93 106h57zM323 30c133 0 223 119 223 302c0 182 -90 297 -223 297c-134 0 -224 -115 -224 -297c0 -183 90 -302 224 -302zM528 747l35 19c12 -18 19 -35 19 -55c0 -53 -37 -83 -98 -97c68 -57 110 -156 110 -282c0 -209 -113 -344 -271 -344
c-159 0 -272 135 -272 344c0 208 113 339 272 339c46 0 88 -11 124 -32c65 9 95 31 95 69c0 13 -5 25 -14 39z" />
    <glyph glyph-name="uni1EDB" unicode="&#x1edb;" horiz-adv-x="535" 
d="M356 708l-107 -136h-37l91 136h53zM267 27c97 0 170 86 170 212c0 127 -73 214 -170 214s-169 -87 -169 -214c0 -126 72 -212 169 -212zM431 578l35 20c13 -18 20 -36 20 -56c0 -57 -44 -82 -90 -95c52 -42 87 -113 87 -208c0 -159 -100 -251 -216 -251
c-115 0 -215 92 -215 251c0 161 100 253 215 253c33 0 64 -7 92 -21c57 7 87 30 87 68c0 13 -5 26 -15 39z" />
    <glyph glyph-name="uni1EDC" unicode="&#x1edc;" horiz-adv-x="645" 
d="M360 709h-41l-109 106h57zM323 30c133 0 223 119 223 302c0 182 -90 297 -223 297c-134 0 -224 -115 -224 -297c0 -183 90 -302 224 -302zM528 747l35 19c12 -18 19 -35 19 -55c0 -53 -37 -83 -98 -97c68 -57 110 -156 110 -282c0 -209 -113 -344 -271 -344
c-159 0 -272 135 -272 344c0 208 113 339 272 339c46 0 88 -11 124 -32c65 9 95 31 95 69c0 13 -5 25 -14 39z" />
    <glyph glyph-name="uni1EDD" unicode="&#x1edd;" horiz-adv-x="535" 
d="M323 572h-38l-106 136h52zM267 27c97 0 170 86 170 212c0 127 -73 214 -170 214s-169 -87 -169 -214c0 -126 72 -212 169 -212zM431 578l35 20c13 -18 20 -36 20 -56c0 -57 -44 -82 -90 -95c52 -42 87 -113 87 -208c0 -159 -100 -251 -216 -251c-115 0 -215 92 -215 251
c0 161 100 253 215 253c33 0 64 -7 92 -21c57 7 87 30 87 68c0 13 -5 26 -15 39z" />
    <glyph glyph-name="uni1EDE" unicode="&#x1ede;" horiz-adv-x="645" 
d="M299 702l-8 27c36 11 63 26 63 54c0 31 -31 46 -85 48l4 32c66 -2 120 -24 120 -74c0 -52 -46 -74 -94 -87zM323 30c133 0 223 119 223 302c0 182 -90 297 -223 297c-134 0 -224 -115 -224 -297c0 -183 90 -302 224 -302zM528 747l35 19c12 -18 19 -35 19 -55
c0 -53 -37 -83 -98 -97c68 -57 110 -156 110 -282c0 -209 -113 -344 -271 -344c-159 0 -272 135 -272 344c0 208 113 339 272 339c46 0 88 -11 124 -32c65 9 95 31 95 69c0 13 -5 25 -14 39z" />
    <glyph glyph-name="uni1EDF" unicode="&#x1edf;" horiz-adv-x="535" 
d="M244 551l-9 26c37 11 64 26 64 55c0 30 -31 46 -85 48l3 32c66 -3 121 -24 121 -75c0 -52 -46 -73 -94 -86zM267 27c97 0 170 86 170 212c0 127 -73 214 -170 214s-169 -87 -169 -214c0 -126 72 -212 169 -212zM431 578l35 20c13 -18 20 -36 20 -56
c0 -57 -44 -82 -90 -95c52 -42 87 -113 87 -208c0 -159 -100 -251 -216 -251c-115 0 -215 92 -215 251c0 161 100 253 215 253c33 0 64 -7 92 -21c57 7 87 30 87 68c0 13 -5 26 -15 39z" />
    <glyph glyph-name="uni1EE0" unicode="&#x1ee0;" horiz-adv-x="645" 
d="M424 808h28c-3 -44 -26 -92 -71 -92c-52 0 -77 57 -118 57c-21 0 -37 -23 -42 -57h-28c3 45 26 92 71 92c52 0 78 -56 118 -56c22 0 37 22 42 56zM323 30c133 0 223 119 223 302c0 182 -90 297 -223 297c-134 0 -224 -115 -224 -297c0 -183 90 -302 224 -302zM528 747
l35 19c12 -18 19 -35 19 -55c0 -53 -37 -83 -98 -97c68 -57 110 -156 110 -282c0 -209 -113 -344 -271 -344c-159 0 -272 135 -272 344c0 208 113 339 272 339c46 0 88 -11 124 -32c65 9 95 31 95 69c0 13 -5 25 -14 39z" />
    <glyph glyph-name="uni1EE1" unicode="&#x1ee1;" horiz-adv-x="535" 
d="M361 670h30c-3 -42 -21 -89 -69 -89s-74 55 -111 55c-21 0 -33 -20 -37 -55h-30c3 43 21 89 68 89c49 0 77 -55 111 -55c22 0 34 21 38 55zM267 27c97 0 170 86 170 212c0 127 -73 214 -170 214s-169 -87 -169 -214c0 -126 72 -212 169 -212zM431 578l35 20
c13 -18 20 -36 20 -56c0 -57 -44 -82 -90 -95c52 -42 87 -113 87 -208c0 -159 -100 -251 -216 -251c-115 0 -215 92 -215 251c0 161 100 253 215 253c33 0 64 -7 92 -21c57 7 87 30 87 68c0 13 -5 26 -15 39z" />
    <glyph glyph-name="uni1EE2" unicode="&#x1ee2;" horiz-adv-x="645" 
d="M323 -114c21 0 38 -16 38 -39c0 -25 -17 -41 -38 -41c-22 0 -38 16 -38 41c0 23 16 39 38 39zM323 30c133 0 223 119 223 302c0 182 -90 297 -223 297c-134 0 -224 -115 -224 -297c0 -183 90 -302 224 -302zM528 747l35 19c12 -18 19 -35 19 -55c0 -53 -37 -83 -98 -97
c68 -57 110 -156 110 -282c0 -209 -113 -344 -271 -344c-159 0 -272 135 -272 344c0 208 113 339 272 339c46 0 88 -11 124 -32c65 9 95 31 95 69c0 13 -5 25 -14 39z" />
    <glyph glyph-name="uni1EE3" unicode="&#x1ee3;" horiz-adv-x="535" 
d="M268 -114c22 0 38 -16 38 -39c0 -25 -16 -41 -38 -41c-21 0 -38 16 -38 41c0 23 17 39 38 39zM267 27c97 0 170 86 170 212c0 127 -73 214 -170 214s-169 -87 -169 -214c0 -126 72 -212 169 -212zM431 578l35 20c13 -18 20 -36 20 -56c0 -57 -44 -82 -90 -95
c52 -42 87 -113 87 -208c0 -159 -100 -251 -216 -251c-115 0 -215 92 -215 251c0 161 100 253 215 253c33 0 64 -7 92 -21c57 7 87 30 87 68c0 13 -5 26 -15 39z" />
    <glyph glyph-name="uni1EE4" unicode="&#x1ee4;" horiz-adv-x="627" 
d="M91 253v406h46v-401c0 -175 83 -228 176 -228c95 0 179 53 179 228v401h44v-406c0 -206 -110 -265 -223 -265c-114 0 -222 59 -222 265zM314 -194c-22 0 -39 16 -39 41c0 23 17 39 39 39c21 0 38 -16 38 -39c0 -25 -17 -41 -38 -41z" />
    <glyph glyph-name="uni1EE5" unicode="&#x1ee5;" horiz-adv-x="529" 
d="M85 172v308h44v-302c0 -102 32 -150 109 -150c57 0 99 30 155 98v354h44v-480h-37l-5 80h-2c-47 -55 -97 -92 -163 -92c-99 0 -145 60 -145 184zM283 -194c-22 0 -38 16 -38 41c0 23 16 39 38 39c21 0 38 -16 38 -39c0 -25 -17 -41 -38 -41z" />
    <glyph glyph-name="uni1EE6" unicode="&#x1ee6;" horiz-adv-x="627" 
d="M91 253v406h46v-401c0 -175 83 -228 176 -228c95 0 179 53 179 228v401h44v-406c0 -206 -110 -265 -223 -265c-114 0 -222 59 -222 265zM290 702l-8 27c36 11 63 26 63 54c0 31 -31 46 -85 48l4 32c66 -2 120 -24 120 -74c0 -52 -46 -74 -94 -87z" />
    <glyph glyph-name="uni1EE7" unicode="&#x1ee7;" horiz-adv-x="529" 
d="M85 172v308h44v-302c0 -102 32 -150 109 -150c57 0 99 30 155 98v354h44v-480h-37l-5 80h-2c-47 -55 -97 -92 -163 -92c-99 0 -145 60 -145 184zM241 551l-8 26c36 11 63 26 63 55c0 30 -31 46 -85 48l4 32c66 -3 120 -24 120 -75c0 -52 -46 -73 -94 -86z" />
    <glyph glyph-name="uni1EE8" unicode="&#x1ee8;" horiz-adv-x="638" 
d="M425 815l-109 -106h-41l93 106h57zM582 767l35 19c13 -18 20 -35 20 -55c0 -62 -49 -86 -101 -98v-380c0 -206 -110 -265 -223 -265c-114 0 -222 59 -222 265v406h46v-401c0 -175 83 -228 176 -228c95 0 179 53 179 228v401h14c61 9 91 28 91 69c0 13 -5 25 -15 39z" />
    <glyph glyph-name="uni1EE9" unicode="&#x1ee9;" horiz-adv-x="529" 
d="M349 708l-106 -136h-38l92 136h52zM472 588l35 20c12 -18 19 -36 19 -56c0 -60 -49 -84 -89 -95v-457h-37l-5 80h-2c-47 -55 -97 -92 -163 -92c-99 0 -145 60 -145 184v308h44v-302c0 -102 32 -150 109 -150c57 0 99 30 155 98v354h7c52 7 86 28 86 69c0 13 -5 26 -14 39
z" />
    <glyph glyph-name="uni1EEA" unicode="&#x1eea;" horiz-adv-x="638" 
d="M350 709h-41l-109 106h57zM582 767l35 19c13 -18 20 -35 20 -55c0 -62 -49 -86 -101 -98v-380c0 -206 -110 -265 -223 -265c-114 0 -222 59 -222 265v406h46v-401c0 -175 83 -228 176 -228c95 0 179 53 179 228v401h14c61 9 91 28 91 69c0 13 -5 25 -15 39z" />
    <glyph glyph-name="uni1EEB" unicode="&#x1eeb;" horiz-adv-x="529" 
d="M316 572h-37l-107 136h53zM472 588l35 20c12 -18 19 -36 19 -56c0 -60 -49 -84 -89 -95v-457h-37l-5 80h-2c-47 -55 -97 -92 -163 -92c-99 0 -145 60 -145 184v308h44v-302c0 -102 32 -150 109 -150c57 0 99 30 155 98v354h7c52 7 86 28 86 69c0 13 -5 26 -14 39z" />
    <glyph glyph-name="uni1EEC" unicode="&#x1eec;" horiz-adv-x="638" 
d="M289 702l-8 27c36 11 63 26 63 54c0 31 -31 46 -85 48l4 32c66 -2 120 -24 120 -74c0 -52 -46 -74 -94 -87zM582 767l35 19c13 -18 20 -35 20 -55c0 -62 -49 -86 -101 -98v-380c0 -206 -110 -265 -223 -265c-114 0 -222 59 -222 265v406h46v-401c0 -175 83 -228 176 -228
c95 0 179 53 179 228v401h14c61 9 91 28 91 69c0 13 -5 25 -15 39z" />
    <glyph glyph-name="uni1EED" unicode="&#x1eed;" horiz-adv-x="529" 
d="M237 551l-8 26c36 11 63 26 63 55c0 30 -31 46 -85 48l4 32c66 -3 120 -24 120 -75c0 -52 -46 -73 -94 -86zM472 588l35 20c12 -18 19 -36 19 -56c0 -60 -49 -84 -89 -95v-457h-37l-5 80h-2c-47 -55 -97 -92 -163 -92c-99 0 -145 60 -145 184v308h44v-302
c0 -102 32 -150 109 -150c57 0 99 30 155 98v354h7c52 7 86 28 86 69c0 13 -5 26 -14 39z" />
    <glyph glyph-name="uni1EEE" unicode="&#x1eee;" horiz-adv-x="638" 
d="M414 808h28c-3 -44 -26 -92 -71 -92c-52 0 -77 57 -118 57c-21 0 -37 -23 -42 -57h-28c3 45 26 92 71 92c52 0 78 -56 118 -56c22 0 37 22 42 56zM582 767l35 19c13 -18 20 -35 20 -55c0 -62 -49 -86 -101 -98v-380c0 -206 -110 -265 -223 -265c-114 0 -222 59 -222 265
v406h46v-401c0 -175 83 -228 176 -228c95 0 179 53 179 228v401h14c61 9 91 28 91 69c0 13 -5 25 -15 39z" />
    <glyph glyph-name="uni1EEF" unicode="&#x1eef;" horiz-adv-x="529" 
d="M354 670h31c-3 -42 -21 -89 -69 -89c-49 0 -75 55 -111 55c-22 0 -33 -20 -38 -55h-30c3 43 21 89 69 89s77 -55 111 -55c21 0 33 21 37 55zM472 588l35 20c12 -18 19 -36 19 -56c0 -60 -49 -84 -89 -95v-457h-37l-5 80h-2c-47 -55 -97 -92 -163 -92
c-99 0 -145 60 -145 184v308h44v-302c0 -102 32 -150 109 -150c57 0 99 30 155 98v354h7c52 7 86 28 86 69c0 13 -5 26 -14 39z" />
    <glyph glyph-name="uni1EF0" unicode="&#x1ef0;" horiz-adv-x="638" 
d="M313 -114c21 0 38 -16 38 -39c0 -25 -17 -41 -38 -41c-22 0 -38 16 -38 41c0 23 16 39 38 39zM582 767l35 19c13 -18 20 -35 20 -55c0 -62 -49 -86 -101 -98v-380c0 -206 -110 -265 -223 -265c-114 0 -222 59 -222 265v406h46v-401c0 -175 83 -228 176 -228
c95 0 179 53 179 228v401h14c61 9 91 28 91 69c0 13 -5 25 -15 39z" />
    <glyph glyph-name="uni1EF1" unicode="&#x1ef1;" horiz-adv-x="529" 
d="M280 -114c21 0 38 -16 38 -39c0 -25 -17 -41 -38 -41c-22 0 -38 16 -38 41c0 23 16 39 38 39zM472 588l35 20c12 -18 19 -36 19 -56c0 -60 -49 -84 -89 -95v-457h-37l-5 80h-2c-47 -55 -97 -92 -163 -92c-99 0 -145 60 -145 184v308h44v-302c0 -102 32 -150 109 -150
c57 0 99 30 155 98v354h7c52 7 86 28 86 69c0 13 -5 26 -14 39z" />
    <glyph glyph-name="Ygrave" unicode="&#x1ef2;" horiz-adv-x="440" 
d="M197 0v267l-198 392h49l100 -206c23 -48 45 -94 70 -142h4c25 48 50 94 72 142l100 206h47l-198 -392v-267h-46zM216 709l-109 106h58l92 -106h-41z" />
    <glyph glyph-name="ygrave" unicode="&#x1ef3;" horiz-adv-x="436" 
d="M34 -170c10 -4 25 -8 39 -8c59 0 99 54 123 127l13 42l-197 489h48l116 -302c15 -40 34 -92 52 -134h4c15 42 31 94 44 134l103 302h45l-190 -540c-27 -80 -75 -159 -161 -159c-18 0 -36 4 -49 10zM247 572l-106 136h52l92 -136h-38z" />
    <glyph glyph-name="uni1EF4" unicode="&#x1ef4;" horiz-adv-x="440" 
d="M197 0v267l-198 392h49l100 -206c23 -48 45 -94 70 -142h4c25 48 50 94 72 142l100 206h47l-198 -392v-267h-46zM222 -194c-22 0 -38 16 -38 41c0 23 16 39 38 39c21 0 38 -16 38 -39c0 -25 -17 -41 -38 -41z" />
    <glyph glyph-name="uni1EF5" unicode="&#x1ef5;" horiz-adv-x="436" 
d="M34 -170c10 -4 25 -8 39 -8c59 0 99 54 123 127l13 42l-197 489h48l116 -302c15 -40 34 -92 52 -134h4c15 42 31 94 44 134l103 302h45l-190 -540c-27 -80 -75 -159 -161 -159c-18 0 -36 4 -49 10zM360 -193c-22 0 -38 16 -38 41c0 23 16 39 38 39s38 -16 38 -39
c0 -25 -16 -41 -38 -41z" />
    <glyph glyph-name="uni1EF6" unicode="&#x1ef6;" horiz-adv-x="440" 
d="M197 0v267l-198 392h49l100 -206c23 -48 45 -94 70 -142h4c25 48 50 94 72 142l100 206h47l-198 -392v-267h-46zM196 702l-8 27c36 11 63 26 63 54c0 31 -31 46 -85 48l4 32c66 -2 120 -24 120 -74c0 -52 -46 -74 -94 -87z" />
    <glyph glyph-name="uni1EF7" unicode="&#x1ef7;" horiz-adv-x="436" 
d="M34 -170c10 -4 25 -8 39 -8c59 0 99 54 123 127l13 42l-197 489h48l116 -302c15 -40 34 -92 52 -134h4c15 42 31 94 44 134l103 302h45l-190 -540c-27 -80 -75 -159 -161 -159c-18 0 -36 4 -49 10zM206 551l-9 26c37 11 64 26 64 55c0 30 -31 46 -86 48l4 32
c66 -3 121 -24 121 -75c0 -52 -47 -73 -94 -86z" />
    <glyph glyph-name="uni1EF8" unicode="&#x1ef8;" horiz-adv-x="440" 
d="M197 0v267l-198 392h49l100 -206c23 -48 45 -94 70 -142h4c25 48 50 94 72 142l100 206h47l-198 -392v-267h-46zM278 716c-52 0 -77 57 -118 57c-21 0 -37 -23 -41 -57h-29c3 45 26 92 71 92c52 0 78 -56 118 -56c22 0 38 22 42 56h28c-3 -44 -26 -92 -71 -92z" />
    <glyph glyph-name="uni1EF9" unicode="&#x1ef9;" horiz-adv-x="436" 
d="M34 -170c10 -4 25 -8 39 -8c59 0 99 54 123 127l13 42l-197 489h48l116 -302c15 -40 34 -92 52 -134h4c15 42 31 94 44 134l103 302h45l-190 -540c-27 -80 -75 -159 -161 -159c-18 0 -36 4 -49 10zM105 581c3 43 22 89 69 89c49 0 77 -55 111 -55c22 0 33 21 38 55h30
c-3 -42 -21 -89 -69 -89s-75 55 -111 55c-21 0 -33 -20 -37 -55h-31z" />
    <glyph glyph-name="uni2007" unicode="&#x2007;" horiz-adv-x="479" 
 />
    <glyph glyph-name="figuredash" unicode="&#x2012;" horiz-adv-x="479" 
d="M40 232v36h400v-36h-400z" />
    <glyph glyph-name="endash" unicode="&#x2013;" horiz-adv-x="480" 
d="M40 232v36h400v-36h-400z" />
    <glyph glyph-name="emdash" unicode="&#x2014;" horiz-adv-x="800" 
d="M40 232v36h720v-36h-720z" />
    <glyph glyph-name="uni2015" unicode="&#x2015;" horiz-adv-x="800" 
d="M40 232v36h720v-36h-720z" />
    <glyph glyph-name="quoteleft" unicode="&#x2018;" horiz-adv-x="219" 
d="M143 703l18 -23c-44 -36 -67 -67 -67 -124c2 1 5 1 8 1c20 0 40 -12 40 -37s-17 -40 -40 -40c-26 0 -44 24 -44 67c0 71 32 121 85 156z" />
    <glyph glyph-name="quoteright" unicode="&#x2019;" horiz-adv-x="219" 
d="M76 477l-18 23c44 36 67 67 67 124c-2 -1 -5 -1 -8 -1c-19 0 -39 12 -39 37s16 40 39 40c27 0 45 -24 45 -67c0 -71 -32 -121 -86 -156z" />
    <glyph glyph-name="quotesinglbase" unicode="&#x201a;" horiz-adv-x="219" 
d="M76 -131l-18 23c44 36 67 67 67 124c-2 -1 -5 -1 -8 -1c-19 0 -39 12 -39 37s16 40 39 40c27 0 45 -24 45 -67c0 -71 -32 -121 -86 -156z" />
    <glyph glyph-name="quotedblleft" unicode="&#x201c;" horiz-adv-x="360" 
d="M143 703l18 -23c-44 -36 -67 -67 -67 -124c2 1 5 1 8 1c20 0 40 -12 40 -37s-17 -40 -40 -40c-26 0 -44 24 -44 67c0 71 32 121 85 156zM285 703l18 -23c-45 -36 -68 -68 -68 -124c3 1 6 1 9 1c19 0 39 -12 39 -37s-16 -40 -39 -40c-27 0 -45 24 -45 67
c0 71 32 121 86 156z" />
    <glyph glyph-name="quotedblright" unicode="&#x201d;" horiz-adv-x="360" 
d="M76 477l-18 23c44 36 67 67 67 124c-2 -1 -5 -1 -8 -1c-19 0 -39 12 -39 37s16 40 39 40c27 0 45 -24 45 -67c0 -71 -32 -121 -86 -156zM217 477l-18 23c44 36 67 67 67 124c-2 -1 -5 -1 -8 -1c-19 0 -39 12 -39 37s16 40 39 40c27 0 45 -24 45 -67
c0 -71 -32 -121 -86 -156z" />
    <glyph glyph-name="quotedblbase" unicode="&#x201e;" horiz-adv-x="360" 
d="M76 -131l-18 23c44 36 67 67 67 124c-2 -1 -5 -1 -8 -1c-19 0 -39 12 -39 37s16 40 39 40c27 0 45 -24 45 -67c0 -71 -32 -121 -86 -156zM217 -131l-18 23c44 36 67 67 67 124c-2 -1 -5 -1 -8 -1c-19 0 -39 12 -39 37s16 40 39 40c27 0 45 -24 45 -67
c0 -71 -32 -121 -86 -156z" />
    <glyph glyph-name="dagger" unicode="&#x2020;" horiz-adv-x="420" 
d="M189 -80l3 602l-132 -2v42l132 -3l-3 153h42l-2 -153l132 3v-42l-132 2l2 -602h-42z" />
    <glyph glyph-name="daggerdbl" unicode="&#x2021;" horiz-adv-x="420" 
d="M60 70v42l132 -3l-3 207l3 207l-132 -3v42l132 -3l-3 153h42l-2 -153l132 3v-42l-132 3l2 -207l-2 -207l132 3v-42l-132 3l2 -153h-42l3 153z" />
    <glyph glyph-name="bullet" unicode="&#x2022;" horiz-adv-x="281" 
d="M140 154c-51 0 -100 42 -100 110c0 67 49 110 100 110c52 0 101 -43 101 -110c0 -68 -49 -110 -101 -110z" />
    <glyph glyph-name="ellipsis" unicode="&#x2026;" horiz-adv-x="931" 
d="M104 33c0 29 21 46 43 46s42 -17 42 -46c0 -28 -20 -45 -42 -45s-43 17 -43 45zM441 33c0 29 21 46 43 46s42 -17 42 -46c0 -28 -20 -45 -42 -45s-43 17 -43 45zM779 33c0 29 20 46 42 46s42 -17 42 -46c0 -28 -20 -45 -42 -45s-42 17 -42 45z" />
    <glyph glyph-name="perthousand" unicode="&#x2030;" horiz-adv-x="1162" 
d="M233 -12h-39l368 683h38zM181 257c-87 0 -141 74 -141 208c0 132 54 206 141 206s141 -74 141 -206c0 -134 -54 -208 -141 -208zM181 290c62 0 102 64 102 175s-40 173 -102 173s-102 -62 -102 -173s40 -175 102 -175zM621 -12c-87 0 -141 74 -141 208
c0 132 54 206 141 206s141 -74 141 -206c0 -134 -54 -208 -141 -208zM621 21c62 0 102 64 102 175s-40 173 -102 173s-103 -62 -103 -173s41 -175 103 -175zM981 -12c-87 0 -141 74 -141 208c0 132 54 206 141 206s141 -74 141 -206c0 -134 -54 -208 -141 -208zM981 21
c62 0 102 64 102 175s-40 173 -102 173s-102 -62 -102 -173s40 -175 102 -175z" />
    <glyph glyph-name="uni2032" unicode="&#x2032;" horiz-adv-x="219" 
d="M82 481l23 212h43l-10 -74l-27 -138h-29z" />
    <glyph glyph-name="uni2033" unicode="&#x2033;" horiz-adv-x="360" 
d="M82 481l23 212h43l-10 -74l-27 -138h-29zM223 481l24 212h42l-10 -74l-27 -138h-29z" />
    <glyph glyph-name="guilsinglleft" unicode="&#x2039;" horiz-adv-x="259" 
d="M180 72l-137 161v38l137 161l25 -21l-123 -159l123 -161z" />
    <glyph glyph-name="guilsinglright" unicode="&#x203a;" horiz-adv-x="259" 
d="M54 91l122 161l-122 159l24 21l138 -161v-38l-138 -161z" />
    <glyph glyph-name="fraction" unicode="&#x2044;" horiz-adv-x="80" 
d="M-126 -12h-39l368 683h38z" />
    <glyph glyph-name="zero.sups" unicode="&#x2070;" horiz-adv-x="362" 
d="M181 428c-87 0 -141 74 -141 208c0 132 54 206 141 206s141 -74 141 -206c0 -134 -54 -208 -141 -208zM181 461c62 0 102 64 102 175s-40 173 -102 173s-102 -62 -102 -173s40 -175 102 -175z" />
    <glyph glyph-name="i.sups" unicode="&#x2071;" horiz-adv-x="153" 
d="M78 650c-18 0 -32 13 -32 31s14 31 32 31s32 -13 32 -31s-14 -31 -32 -31zM58 260v318h37v-318h-37z" />
    <glyph glyph-name="four.sups" unicode="&#x2074;" horiz-adv-x="362" 
d="M94 586h129v87l4 104h-4l-56 -83zM317 586v-32h-58v-114h-36v114h-177v21l177 255h36v-244h58z" />
    <glyph glyph-name="five.sups" unicode="&#x2075;" horiz-adv-x="362" 
d="M40 503l29 22c26 -38 61 -64 112 -64c53 0 93 42 93 102c0 62 -38 102 -95 102c-36 0 -61 -19 -82 -36l-24 16l20 185h199v-36h-166l-13 -119c20 11 43 20 73 20c71 0 127 -46 127 -133c0 -81 -58 -134 -132 -134c-68 0 -112 35 -141 75z" />
    <glyph glyph-name="six.sups" unicode="&#x2076;" horiz-adv-x="362" 
d="M194 461c51 0 85 42 85 96c0 53 -30 94 -89 94c-35 0 -65 -12 -101 -52c5 -88 45 -138 105 -138zM297 818l-17 -31c-19 12 -40 22 -68 22c-58 0 -118 -49 -124 -171c32 29 67 45 107 45c80 0 122 -53 122 -126s-53 -129 -124 -129c-85 0 -143 70 -143 192
c0 161 78 222 163 222c38 0 62 -10 84 -24z" />
    <glyph glyph-name="seven.sups" unicode="&#x2077;" horiz-adv-x="362" 
d="M139 440c10 143 42 244 127 356h-216v34h261v-23c-99 -126 -124 -228 -132 -367h-40z" />
    <glyph glyph-name="eight.sups" unicode="&#x2078;" horiz-adv-x="362" 
d="M87 539c0 -40 36 -79 92 -79c51 0 93 36 93 79c0 58 -59 72 -120 95c-43 -24 -65 -57 -65 -95zM206 653c35 27 52 57 52 89c0 40 -36 66 -79 66c-41 0 -75 -28 -75 -67c0 -46 45 -70 102 -88zM49 536c0 51 36 91 75 113v4c-34 22 -58 46 -58 88c0 59 50 101 113 101
c66 0 117 -40 117 -101c0 -50 -37 -80 -60 -98v-4c47 -24 74 -53 74 -99c0 -64 -57 -112 -131 -112c-79 0 -130 50 -130 108z" />
    <glyph glyph-name="nine.sups" unicode="&#x2079;" horiz-adv-x="362" 
d="M168 619c36 0 65 12 101 51c-5 89 -43 139 -105 139c-50 0 -85 -42 -85 -96c0 -53 31 -94 89 -94zM61 452l18 31c18 -12 40 -22 68 -22c57 0 117 49 123 171c-31 -29 -67 -45 -107 -45c-79 0 -122 53 -122 126s53 129 124 129c85 0 143 -70 143 -192
c0 -161 -78 -222 -162 -222c-39 0 -62 10 -85 24z" />
    <glyph glyph-name="parenleft.sups" unicode="&#x207d;" horiz-adv-x="219" 
d="M152 368c-56 77 -86 157 -86 266c0 108 30 188 86 265l26 -16c-55 -77 -74 -161 -74 -249s19 -172 74 -250z" />
    <glyph glyph-name="parenright.sups" unicode="&#x207e;" horiz-adv-x="219" 
d="M41 384c55 78 73 162 73 250s-18 172 -73 249l27 16c55 -77 85 -157 85 -265c0 -109 -30 -189 -85 -266z" />
    <glyph glyph-name="n.sups" unicode="&#x207f;" horiz-adv-x="359" 
d="M58 260v318h29l5 -48h4c29 32 67 56 109 56c76 0 101 -51 101 -122v-204h-38v197c0 58 -13 95 -71 95c-31 0 -63 -17 -102 -56v-236h-37z" />
    <glyph glyph-name="zero.subs" unicode="&#x2080;" horiz-adv-x="362" 
d="M181 -192c-87 0 -141 74 -141 208c0 132 54 206 141 206s141 -74 141 -206c0 -134 -54 -208 -141 -208zM181 -159c62 0 102 63 102 175c0 111 -40 173 -102 173s-102 -62 -102 -173c0 -112 40 -175 102 -175z" />
    <glyph glyph-name="one.subs" unicode="&#x2081;" horiz-adv-x="362" 
d="M176 -180v324h-82v27c38 8 64 20 87 39h33v-390h-38z" />
    <glyph glyph-name="two.subs" unicode="&#x2082;" horiz-adv-x="362" 
d="M56 -180v24c134 125 193 185 193 251c0 57 -34 93 -86 93c-36 0 -69 -28 -91 -62l-25 23c24 40 71 73 120 73c72 0 121 -41 121 -123s-69 -147 -169 -245h192v-34h-255z" />
    <glyph glyph-name="three.subs" unicode="&#x2083;" horiz-adv-x="362" 
d="M40 -118l29 22c24 -37 64 -63 109 -63c49 0 91 30 91 83c0 51 -53 80 -138 80v28c78 0 122 39 122 83s-32 74 -83 74c-31 0 -64 -21 -89 -52l-25 22c28 36 68 63 118 63c65 0 118 -39 118 -103c0 -49 -32 -82 -75 -99c47 -9 91 -43 91 -97c0 -72 -58 -115 -131 -115
c-61 0 -110 35 -137 74z" />
    <glyph glyph-name="four.subs" unicode="&#x2084;" horiz-adv-x="362" 
d="M94 -35h129v88l4 104h-4l-56 -83zM317 -35v-31h-58v-114h-36v114h-177v21l177 255h36v-245h58z" />
    <glyph glyph-name="five.subs" unicode="&#x2085;" horiz-adv-x="362" 
d="M40 -118l29 22c26 -37 61 -63 112 -63c53 0 93 41 93 102c0 62 -38 102 -95 102c-36 0 -61 -19 -82 -37l-24 17l20 185h199v-36h-166l-13 -119c20 11 43 20 73 20c71 0 127 -46 127 -133c0 -82 -58 -134 -132 -134c-68 0 -112 35 -141 74z" />
    <glyph glyph-name="six.subs" unicode="&#x2086;" horiz-adv-x="362" 
d="M194 -159c51 0 85 42 85 96c0 53 -30 94 -89 94c-35 0 -65 -13 -101 -52c5 -88 44 -138 105 -138zM297 197l-17 -31c-19 13 -40 23 -68 23c-58 0 -118 -49 -124 -171c32 29 67 45 107 45c80 0 122 -54 122 -126c0 -73 -53 -129 -124 -129c-85 0 -143 69 -143 192
c0 160 78 222 163 222c38 0 62 -10 84 -25z" />
    <glyph glyph-name="seven.subs" unicode="&#x2087;" horiz-adv-x="362" 
d="M139 -180c10 143 42 243 127 356h-216v34h261v-23c-99 -126 -124 -228 -132 -367h-40z" />
    <glyph glyph-name="eight.subs" unicode="&#x2088;" horiz-adv-x="362" 
d="M87 -81c0 -40 36 -80 92 -80c51 0 93 36 93 80c0 58 -59 72 -120 95c-43 -25 -65 -57 -65 -95zM206 33c35 27 52 57 52 89c0 40 -36 66 -79 66c-41 0 -75 -28 -75 -67c0 -46 45 -70 102 -88zM49 -84c0 51 36 91 75 113v4c-34 22 -58 46 -58 88c0 59 50 101 113 101
c66 0 117 -40 117 -101c0 -50 -37 -80 -60 -98v-4c47 -24 74 -53 74 -99c0 -64 -57 -112 -131 -112c-79 0 -130 50 -130 108z" />
    <glyph glyph-name="nine.subs" unicode="&#x2089;" horiz-adv-x="362" 
d="M168 -1c36 0 65 12 102 50c-5 89 -44 140 -106 140c-50 0 -85 -42 -85 -96c0 -53 31 -94 89 -94zM61 -168l18 31c18 -12 40 -22 68 -22c57 0 117 49 123 171c-31 -29 -67 -45 -107 -45c-79 0 -122 53 -122 126c0 72 53 129 124 129c85 0 143 -70 143 -192
c0 -161 -78 -222 -162 -222c-39 0 -62 9 -85 24z" />
    <glyph glyph-name="parenleft.subs" unicode="&#x208d;" horiz-adv-x="219" 
d="M152 -253c-56 78 -86 158 -86 267c0 108 30 187 86 265l26 -16c-55 -77 -74 -161 -74 -249s19 -172 74 -250z" />
    <glyph glyph-name="parenright.subs" unicode="&#x208e;" horiz-adv-x="219" 
d="M41 -236c55 78 73 162 73 250s-18 172 -73 249l27 16c55 -78 85 -157 85 -265c0 -109 -30 -189 -85 -267z" />
    <glyph glyph-name="uni0259.sups" unicode="&#x2094;" horiz-adv-x="330" 
d="M157 252c-103 0 -130 90 -130 148c0 11 0 15 3 31h229c1 70 -35 122 -106 122c-36 0 -62 -13 -86 -29l-16 27c27 17 57 35 102 35c89 0 144 -60 144 -167c0 -103 -59 -167 -140 -167zM157 284c58 0 98 40 102 117h-197c0 -64 27 -117 95 -117z" />
    <glyph glyph-name="colonmonetary" unicode="&#x20a1;" horiz-adv-x="479" 
d="M274 610l-67 -557c19 -14 41 -23 65 -26l69 580c-11 4 -23 6 -36 6c-11 0 -21 -1 -31 -3zM179 79l62 523c-83 -33 -129 -135 -129 -280c0 -107 24 -192 67 -243zM427 107l29 -25c-40 -56 -89 -91 -158 -94l-12 -98h-30l12 99c-24 3 -46 9 -66 20l-14 -119h-31l16 137
c-67 53 -108 157 -108 294c0 175 69 293 181 323l13 105h31l-12 -99c9 1 18 1 27 1c14 0 28 -2 41 -6l12 104h30l-14 -115c30 -14 55 -37 73 -62l-29 -27c-14 20 -30 37 -48 49l-68 -568c51 3 88 30 125 81z" />
    <glyph glyph-name="lira" unicode="&#x20a4;" horiz-adv-x="479" 
d="M133 40h295v-40h-371v27c74 42 106 117 106 194c0 8 0 17 -1 25h-108v29l65 5h38c-5 22 -11 44 -17 65h-86v30l63 4h12c-9 33 -17 67 -17 102c0 105 65 170 170 170c69 0 114 -33 144 -71l-29 -27c-28 33 -62 59 -115 59c-82 0 -125 -58 -125 -131c0 -35 8 -68 18 -102
h179v-34h-170c6 -21 12 -42 16 -65h154v-34h-150c1 -8 1 -16 1 -25c0 -83 -26 -133 -72 -177v-4z" />
    <glyph glyph-name="uni20A6" unicode="&#x20a6;" horiz-adv-x="479" 
d="M345 276v5v63h-93l24 -68h69zM353 54l-7 189h-58l61 -189h4zM134 276h100l-24 68h-76v-68zM126 586l7 -211h66l-7 21l-62 190h-4zM459 344h-73v-68h73v-33h-73v-243h-54l-86 243h-112v-243h-41v243h-77v29l77 4v68h-77v27l77 4v264h54l94 -264h104v264h41v-264h73v-31z
" />
    <glyph glyph-name="peseta" unicode="&#x20a7;" horiz-adv-x="479" 
d="M137 299h37c109 0 172 45 179 139h-216v-139zM174 604h-37v-130h216c-6 96 -69 130 -179 130zM464 474v-36h-66c-8 -118 -93 -175 -213 -175h-48v-263h-43v438h-80v31l80 5v165h91c120 0 206 -46 213 -165h66z" />
    <glyph glyph-name="dong" unicode="&#x20ab;" horiz-adv-x="479" 
d="M80 0v34h335v-34h-335zM343 206v180c-39 36 -66 51 -109 51c-68 0 -121 -63 -121 -140c0 -94 41 -153 117 -153c38 0 75 18 113 62zM384 595h81v-29l-81 -5v-444h-33l-5 47h-3c-30 -32 -68 -57 -119 -57c-94 0 -155 66 -155 188c0 109 77 179 163 179
c51 0 80 -20 115 -51l-4 93v45h-146v34h146v78h41v-78z" />
    <glyph glyph-name="Euro" unicode="&#x20ac;" horiz-adv-x="479" 
d="M445 107l29 -25c-42 -58 -92 -94 -166 -94c-117 0 -199 99 -219 258h-65v29l62 4c-1 14 -1 28 -1 42c0 12 0 24 1 35h-62v29l65 4c18 163 105 262 234 262c60 0 112 -36 141 -78l-29 -27c-29 40 -66 67 -112 67c-106 0 -172 -85 -187 -224h278v-33h-281
c-1 -11 -1 -22 -1 -34c0 -15 0 -29 1 -43h241v-33h-238c17 -135 79 -220 175 -220c55 0 95 27 134 81z" />
    <glyph glyph-name="uni20B1" unicode="&#x20b1;" horiz-adv-x="479" 
d="M137 427h215c1 9 2 19 2 30c0 13 -1 26 -3 37h-214v-67zM137 299h37c91 0 150 31 171 96h-208v-96zM174 604h-37v-79h206c-24 57 -82 79 -169 79zM464 525v-31h-68c2 -12 3 -24 3 -37c0 -10 -1 -20 -2 -30h67v-32h-73c-24 -89 -102 -132 -206 -132h-48v-263h-43v395h-80
v28l80 4v67h-80v27l80 4v114h91c101 0 178 -32 204 -114h75z" />
    <glyph glyph-name="uni20B2" unicode="&#x20b2;" horiz-adv-x="479" 
d="M277 313h163v-253c-37 -43 -86 -66 -142 -71v-99h-38v99c-125 10 -208 137 -208 332c0 188 80 311 208 328v100h38v-98c58 -2 107 -38 136 -78l-29 -27c-30 40 -67 67 -114 67c-122 0 -191 -113 -191 -291c0 -179 65 -295 179 -295c50 0 97 24 118 51v196h-120v39z" />
    <glyph glyph-name="uni20B5" unicode="&#x20b5;" horiz-adv-x="479" 
d="M274 27v583c-104 -17 -162 -125 -162 -288c0 -169 59 -283 162 -295zM427 107l29 -25c-38 -52 -83 -87 -146 -93v-99h-36v99c-127 9 -209 137 -209 332c0 188 80 311 209 328v101h36v-99c58 -2 108 -37 136 -78l-29 -27c-28 39 -63 65 -107 67v-586c47 5 82 32 117 80z
" />
    <glyph glyph-name="uni20B9" unicode="&#x20b9;" horiz-adv-x="479" 
d="M443 639v-33h-148c42 -20 73 -58 82 -107h66v-34h-64c-3 -110 -72 -170 -174 -182l201 -283h-54l-197 281h-82v39h75c115 0 183 45 185 145h-260v30l67 4h191c-14 73 -79 102 -183 102h-75v38h370z" />
    <glyph glyph-name="uni20BA" unicode="&#x20ba;" horiz-adv-x="479" 
d="M176 31c97 1 228 60 228 184c0 15 0 30 -6 51l40 13c5 -26 7 -40 7 -61c0 -161 -150 -233 -315 -230v297l-102 -52v36l102 52v82l-102 -52v36l102 53v199h46v-177l176 92v-36l-176 -92v-82l176 92v-36l-176 -92v-277z" />
    <glyph glyph-name="uni2113" unicode="&#x2113;" horiz-adv-x="373" 
d="M150 529v-263c86 90 148 199 148 307c0 80 -30 109 -70 109c-42 0 -78 -49 -78 -153zM338 71l20 -28c-26 -26 -65 -55 -115 -55c-75 0 -137 61 -137 177v10c-19 -15 -38 -30 -58 -43l-20 31c27 18 53 39 78 61v294c0 147 54 202 121 202c65 0 113 -50 113 -145
c0 -127 -83 -260 -190 -361v-38c0 -108 45 -149 97 -149c42 0 67 21 91 44z" />
    <glyph glyph-name="uni2117" unicode="&#x2117;" horiz-adv-x="739" 
d="M261 136v361h134c76 0 135 -36 135 -109c0 -81 -59 -123 -135 -123h-93v-129h-41zM302 299h81c64 0 104 27 104 89c0 52 -40 75 -104 75h-81v-164zM51 322c0 201 147 330 320 330c172 0 319 -129 319 -330c0 -202 -147 -334 -319 -334c-173 0 -320 132 -320 334zM86 322
c0 -181 131 -303 285 -303c153 0 284 122 284 303c0 180 -131 300 -284 300c-154 0 -285 -120 -285 -300z" />
    <glyph glyph-name="uni2120" unicode="&#x2120;" horiz-adv-x="610" 
d="M140 357c-44 0 -82 18 -108 46l24 25c25 -25 50 -39 87 -39s59 20 59 50c0 31 -14 37 -46 54l-49 26c-28 14 -59 36 -59 81c0 51 41 81 97 81c33 0 66 -16 87 -37l-21 -26c-20 17 -44 31 -68 31c-38 0 -58 -22 -58 -48c0 -23 17 -38 45 -51l49 -25c38 -18 60 -40 60 -85
c0 -43 -37 -83 -99 -83zM307 369v307h52l52 -125l31 -86h4l31 86l50 125h52v-307h-38v161l5 98h-4l-82 -211h-34l-82 211h-4l5 -98v-161h-38z" />
    <glyph glyph-name="trademark" unicode="&#x2122;" horiz-adv-x="610" 
d="M307 369v307h52l52 -125l31 -86h4l31 86l50 125h52v-307h-38v161l5 98h-4l-82 -211h-34l-82 211h-4l5 -98v-161h-38zM109 369v272h-107v35h253v-35h-108v-272h-38z" />
    <glyph glyph-name="uni2126" unicode="&#x2126;" horiz-adv-x="661" 
d="M44 0v39h144v4c-65 62 -132 158 -132 305c0 196 108 324 275 324c166 0 274 -128 274 -324c0 -147 -66 -243 -131 -305v-4h143v-39h-214v33c81 56 154 156 154 315c0 169 -85 282 -226 282c-142 0 -227 -113 -227 -282c0 -159 73 -259 154 -315v-33h-214z" />
    <glyph glyph-name="estimated" unicode="&#x212e;" horiz-adv-x="800" 
d="M184 108c54 -62 132 -100 218 -100c90 0 172 44 228 112h52c-66 -80 -168 -132 -282 -132c-196 0 -354 150 -354 336s158 336 354 336s354 -150 354 -336v-8h-574c-2 0 -4 -2 -4 -4v-184c0 -8 4 -14 8 -20zM180 334h440c4 0 6 2 6 6v184c0 8 -4 16 -10 22
c-56 58 -132 94 -214 94c-86 0 -162 -38 -218 -98c-4 -6 -8 -14 -8 -22v-180c0 -4 2 -6 4 -6z" />
    <glyph glyph-name="onethird" unicode="&#x2153;" horiz-adv-x="785" 
d="M155 269v324h-83v27c39 8 64 20 88 39h33v-390h-38zM187 -12h-39l368 683h38zM463 63l29 22c24 -38 64 -64 109 -64c49 0 91 30 91 83c0 51 -53 80 -138 80v28c78 0 122 39 122 84c0 43 -32 73 -83 73c-31 0 -64 -21 -89 -52l-25 22c28 36 68 63 118 63
c65 0 118 -38 118 -103c0 -49 -32 -82 -75 -99c47 -9 91 -42 91 -97c0 -72 -58 -115 -131 -115c-61 0 -110 35 -137 75z" />
    <glyph glyph-name="twothirds" unicode="&#x2154;" horiz-adv-x="804" 
d="M57 269v25c133 124 193 184 193 250c0 57 -35 93 -86 93c-37 0 -70 -28 -92 -62l-25 23c25 40 71 73 120 73c72 0 122 -41 122 -123s-70 -146 -169 -245h191v-34h-254zM237 -12h-39l368 683h38zM482 63l29 22c24 -38 64 -64 109 -64c49 0 91 30 91 83
c0 51 -53 80 -138 80v28c78 0 122 39 122 84c0 43 -32 73 -83 73c-31 0 -64 -21 -89 -52l-25 22c28 36 68 63 118 63c65 0 118 -38 118 -103c0 -49 -32 -82 -75 -99c47 -9 91 -42 91 -97c0 -72 -58 -115 -131 -115c-61 0 -110 35 -137 75z" />
    <glyph glyph-name="oneeighth" unicode="&#x215b;" horiz-adv-x="785" 
d="M155 269v324h-83v27c39 8 64 20 88 39h33v-390h-38zM197 -12h-39l368 683h38zM510 99c0 -40 36 -79 92 -79c51 0 93 36 93 79c0 58 -58 72 -119 95c-43 -24 -66 -57 -66 -95zM629 213c35 27 52 57 52 89c0 40 -35 66 -79 66c-41 0 -75 -28 -75 -67c0 -46 45 -70 102 -88z
M472 96c0 51 36 91 75 113v4c-34 22 -58 46 -58 88c0 59 50 101 113 101c66 0 117 -40 117 -101c0 -50 -36 -80 -60 -98v-4c47 -24 74 -53 74 -99c0 -64 -57 -112 -131 -112c-79 0 -130 50 -130 108z" />
    <glyph glyph-name="threeeighths" unicode="&#x215c;" horiz-adv-x="804" 
d="M40 332l29 22c24 -38 64 -64 109 -64c49 0 91 30 91 83c0 51 -53 80 -138 80v28c78 0 122 39 122 84c0 43 -32 73 -83 73c-31 0 -64 -21 -89 -52l-25 22c28 36 68 63 118 63c65 0 118 -38 118 -103c0 -49 -32 -82 -75 -99c47 -9 91 -42 91 -97c0 -72 -58 -115 -131 -115
c-61 0 -110 35 -137 75zM236 -12h-39l368 683h38zM529 99c0 -40 36 -79 92 -79c51 0 93 36 93 79c0 58 -58 72 -119 95c-43 -24 -66 -57 -66 -95zM648 213c35 27 52 57 52 89c0 40 -35 66 -79 66c-41 0 -75 -28 -75 -67c0 -46 45 -70 102 -88zM491 96c0 51 36 91 75 113v4
c-34 22 -58 46 -58 88c0 59 50 101 113 101c66 0 117 -40 117 -101c0 -50 -36 -80 -60 -98v-4c47 -24 74 -53 74 -99c0 -64 -57 -112 -131 -112c-79 0 -130 50 -130 108z" />
    <glyph glyph-name="fiveeighths" unicode="&#x215d;" horiz-adv-x="804" 
d="M40 332l29 22c26 -38 61 -64 112 -64c53 0 93 42 93 102c0 62 -38 102 -95 102c-36 0 -61 -19 -82 -36l-24 16l20 185h199v-36h-166l-13 -119c20 11 43 20 73 20c71 0 127 -46 127 -133c0 -81 -58 -134 -132 -134c-68 0 -112 35 -141 75zM236 -12h-39l368 683h38zM529 99
c0 -40 36 -79 92 -79c51 0 93 36 93 79c0 58 -58 72 -119 95c-43 -24 -66 -57 -66 -95zM648 213c35 27 52 57 52 89c0 40 -35 66 -79 66c-41 0 -75 -28 -75 -67c0 -46 45 -70 102 -88zM491 96c0 51 36 91 75 113v4c-34 22 -58 46 -58 88c0 59 50 101 113 101
c66 0 117 -40 117 -101c0 -50 -36 -80 -60 -98v-4c47 -24 74 -53 74 -99c0 -64 -57 -112 -131 -112c-79 0 -130 50 -130 108z" />
    <glyph glyph-name="seveneighths" unicode="&#x215e;" horiz-adv-x="784" 
d="M119 269c10 143 42 244 127 356h-216v34h261v-23c-99 -126 -124 -228 -132 -367h-40zM186 -12h-39l368 683h38zM509 99c0 -40 36 -79 92 -79c51 0 93 36 93 79c0 58 -58 72 -119 95c-43 -24 -66 -57 -66 -95zM628 213c35 27 52 57 52 89c0 40 -35 66 -79 66
c-41 0 -75 -28 -75 -67c0 -46 45 -70 102 -88zM471 96c0 51 36 91 75 113v4c-34 22 -58 46 -58 88c0 59 50 101 113 101c66 0 117 -40 117 -101c0 -50 -36 -80 -60 -98v-4c47 -24 74 -53 74 -99c0 -64 -57 -112 -131 -112c-79 0 -130 50 -130 108z" />
    <glyph glyph-name="uni2190" unicode="&#x2190;" horiz-adv-x="620" 
d="M29 250v4l269 264l26 -27l-231 -220h487v-38h-487l231 -220l-26 -27z" />
    <glyph glyph-name="arrowup" unicode="&#x2191;" horiz-adv-x="620" 
d="M308 526h4l264 -269l-27 -26l-220 231v-486h-39v486l-219 -231l-28 26z" />
    <glyph glyph-name="uni2192" unicode="&#x2192;" horiz-adv-x="620" 
d="M589 254v-4l-269 -264l-26 27l230 220h-486v38h486l-230 220l26 27z" />
    <glyph glyph-name="arrowdown" unicode="&#x2193;" horiz-adv-x="620" 
d="M312 -24h-4l-265 269l28 26l219 -231v486h39v-486l220 231l27 -26z" />
    <glyph glyph-name="partialdiff" unicode="&#x2202;" horiz-adv-x="499" 
d="M213 27c109 0 178 104 198 250c-54 61 -108 83 -157 83c-123 0 -174 -85 -174 -180c0 -91 61 -153 133 -153zM141 580l-23 29c36 39 87 63 145 63c113 0 198 -89 198 -309c0 -223 -100 -375 -252 -375c-90 0 -173 71 -173 189c0 129 77 222 217 222c59 0 118 -30 162 -76
c1 13 1 26 1 40c0 200 -67 270 -157 270c-43 0 -86 -20 -118 -53z" />
    <glyph glyph-name="uni2206" unicode="&#x2206;" horiz-adv-x="559" 
d="M27 0v27l228 633h48l229 -633v-27h-505zM79 40h401l-124 347l-74 218h-4l-76 -218z" />
    <glyph glyph-name="product" unicode="&#x220f;" horiz-adv-x="652" 
d="M94 -120v759h464v-759h-48v719h-370v-719h-46z" />
    <glyph glyph-name="summation" unicode="&#x2211;" horiz-adv-x="487" 
d="M19 -87l257 347l-245 346v33h425v-39h-367v-4l239 -335l-250 -337v-4h409v-40h-468v33z" />
    <glyph glyph-name="minus" unicode="&#x2212;" horiz-adv-x="479" 
d="M34 311v38h411v-38h-411z" />
    <glyph glyph-name="uni2215" unicode="&#x2215;" horiz-adv-x="80" 
d="M-126 -12h-39l368 683h38z" />
    <glyph glyph-name="uni2219" unicode="&#x2219;" horiz-adv-x="486" 
d="M195 323c0 29 21 46 43 46s42 -17 42 -46c0 -28 -20 -45 -42 -45s-43 17 -43 45z" />
    <glyph glyph-name="radical" unicode="&#x221a;" horiz-adv-x="539" 
d="M158 384l126 -377c6 -17 11 -35 15 -52h4c4 17 6 35 11 52l189 813h38l-217 -925h-41l-150 439l-69 -32l-15 31z" />
    <glyph glyph-name="infinity" unicode="&#x221e;" horiz-adv-x="763" 
d="M182 182c-75 0 -141 63 -141 146c0 92 66 150 148 150c83 0 137 -65 173 -111h4c45 61 108 127 196 127c95 0 160 -66 160 -161s-64 -166 -158 -166c-86 0 -141 53 -200 125h-4c-35 -38 -90 -110 -178 -110zM386 334c65 -84 115 -123 180 -123c73 0 116 54 116 120
c0 71 -45 126 -124 126c-65 0 -118 -46 -172 -123zM187 220c63 0 114 49 153 106c-50 65 -96 108 -154 108s-105 -37 -105 -103c0 -67 49 -111 106 -111z" />
    <glyph glyph-name="integral" unicode="&#x222b;" horiz-adv-x="299" 
d="M65 -116c8 -2 20 -4 34 -4c59 0 69 68 69 176c0 142 -45 377 -45 514c0 123 20 218 111 218c17 0 34 -2 40 -6l-7 -36c-8 2 -20 4 -34 4c-57 0 -67 -69 -67 -177c0 -142 43 -375 43 -513c0 -124 -20 -218 -109 -218c-19 0 -34 2 -42 6z" />
    <glyph glyph-name="approxequal" unicode="&#x2248;" horiz-adv-x="479" 
d="M69 395l-29 18c29 56 71 83 110 83c77 0 123 -90 181 -90c30 0 55 16 79 63l28 -20c-28 -54 -70 -81 -109 -81c-77 0 -123 90 -181 90c-30 0 -55 -16 -79 -63zM69 191l-29 18c29 56 71 83 110 83c77 0 123 -90 181 -90c30 0 55 16 79 63l28 -20c-28 -54 -70 -81 -109 -81
c-77 0 -123 90 -181 90c-30 0 -55 -16 -79 -63z" />
    <glyph glyph-name="notequal" unicode="&#x2260;" horiz-adv-x="479" 
d="M66 80l79 129h-111v38h134l102 166h-236v38h259l79 129h41l-79 -129h111v-38h-134l-102 -166h236v-38h-259l-79 -129h-41z" />
    <glyph glyph-name="lessequal" unicode="&#x2264;" horiz-adv-x="479" 
d="M34 0v37h411v-37h-411zM34 312v46l411 160v-43l-232 -88l-133 -50v-4l133 -50l232 -88v-43z" />
    <glyph glyph-name="greaterequal" unicode="&#x2265;" horiz-adv-x="479" 
d="M34 0v37h411v-37h-411zM445 358v-46l-411 -160v43l232 88l133 50v4l-133 50l-232 88v43z" />
    <glyph glyph-name="uni25A0" unicode="&#x25a0;" horiz-adv-x="283" 
d="M54 174v180h175v-180h-175z" />
    <glyph glyph-name="triagup" unicode="&#x25b2;" horiz-adv-x="559" 
d="M25 48v2l253 477h4l251 -477v-2h-508z" />
    <glyph glyph-name="uni25B3" unicode="&#x25b3;" horiz-adv-x="559" 
d="M93 84h375l-188 367zM25 48v2l253 477h4l251 -477v-2h-508z" />
    <glyph glyph-name="uni25B6" unicode="&#x25b6;" horiz-adv-x="559" 
d="M59 27v508h2l477 -251v-4l-477 -253h-2z" />
    <glyph glyph-name="uni25B7" unicode="&#x25b7;" horiz-adv-x="559" 
d="M97 94l361 188l-361 187v-375zM59 27v508h2l477 -251v-4l-477 -253h-2z" />
    <glyph glyph-name="triagdn" unicode="&#x25bc;" horiz-adv-x="559" 
d="M278 37l-253 475v2h508v-2l-251 -475h-4z" />
    <glyph glyph-name="uni25BD" unicode="&#x25bd;" horiz-adv-x="559" 
d="M468 478h-375l187 -366zM25 512v2h508v-2l-251 -476h-4z" />
    <glyph glyph-name="uni25C0" unicode="&#x25c0;" horiz-adv-x="559" 
d="M21 280v4l476 251h2v-508h-2z" />
    <glyph glyph-name="uni25C1" unicode="&#x25c1;" horiz-adv-x="559" 
d="M101 282l360 -188v375zM499 535v-508h-2l-476 253v4l476 251h2z" />
    <glyph glyph-name="uni25C6" unicode="&#x25c6;" horiz-adv-x="283" 
d="M142 138l-127 126l127 125l126 -125z" />
    <glyph glyph-name="uni25C9" unicode="&#x25c9;" horiz-adv-x="421" 
d="M210 208c-27 0 -52 21 -52 56c0 33 25 54 52 54c28 0 52 -21 52 -54c0 -35 -24 -56 -52 -56zM210 91c-89 0 -168 63 -168 173c0 108 79 172 168 172c90 0 169 -64 169 -172c0 -110 -79 -173 -169 -173zM210 125c67 0 131 49 131 139s-64 139 -131 139
c-66 0 -131 -49 -131 -139s65 -139 131 -139z" />
    <glyph glyph-name="lozenge" unicode="&#x25ca;" horiz-adv-x="499" 
d="M225 -10l-166 340l166 340h49l166 -340l-166 -340h-49zM247 28h4l68 139l76 163l-76 161l-68 141h-4l-68 -141l-75 -161l75 -163z" />
    <glyph glyph-name="uni2610" unicode="&#x2610;" horiz-adv-x="794" 
d="M107 23h546v581h-546v-581zM74 -10v636l53 43h593v-626l-45 -53h-601z" />
    <glyph glyph-name="uni2611" unicode="&#x2611;" horiz-adv-x="794" 
d="M653 23v560c-102 -137 -187 -303 -236 -475l-56 -7c-36 103 -85 199 -140 281l35 24c51 -79 99 -173 126 -262h4c45 155 130 320 231 460h-510v-581h546zM771 784l32 -32c-28 -26 -56 -55 -83 -86v-623l-45 -53h-601v636l53 43h539c34 42 69 81 105 115z" />
    <glyph glyph-name="uni266A" unicode="&#x266a;" horiz-adv-x="479" 
d="M31 49c0 55 59 108 151 108c26 0 52 -6 61 -12v549h33c10 -29 20 -39 70 -75c87 -64 107 -120 107 -193c0 -49 -12 -93 -22 -122l-27 10c10 33 12 56 12 92c0 65 -47 128 -133 154v-434c0 -98 -81 -147 -157 -147c-53 0 -95 26 -95 70z" />
    <glyph glyph-name="uni2713" unicode="&#x2713;" horiz-adv-x="592" 
d="M198 -13l-55 -7c-38 108 -88 207 -147 293l34 24c55 -83 106 -181 136 -274h4c70 237 227 495 395 658l32 -32c-171 -160 -326 -404 -399 -662z" />
    <glyph glyph-name="uni2752" unicode="&#x2752;" horiz-adv-x="353" 
d="M85 162h148v156h-148v-156zM54 134v206l54 44h191v-197l-44 -53h-201z" />
    <glyph glyph-name="fi" unicode="&#xfb01;" horiz-adv-x="509" 
d="M99 480v107c0 95 43 144 119 144c22 0 48 -6 70 -16l-12 -36c-20 10 -40 14 -58 14c-51 0 -75 -40 -75 -109v-104h111v-38h-111v-442h-44v442h-66v34zM373 0v480h44v-480h-44zM396 675c22 0 40 -15 40 -40c0 -23 -18 -39 -40 -39s-40 16 -40 39c0 25 18 40 40 40z" />
    <glyph glyph-name="fl" unicode="&#xfb02;" horiz-adv-x="500" 
d="M99 480v107c0 95 43 144 119 144c22 0 48 -6 70 -16l-12 -36c-20 10 -40 14 -58 14c-51 0 -75 -40 -75 -109v-104h111v-38h-111v-442h-44v442h-66v34zM438 29l7 -36c-9 -3 -17 -5 -31 -5c-39 0 -59 24 -59 76v655h44v-661c0 -21 9 -31 21 -31c4 0 8 0 18 2z" />
    <glyph glyph-name="uni00470303" horiz-adv-x="597" 
d="M51 331c0 209 118 340 292 340c89 0 144 -42 179 -79l-27 -30c-34 37 -80 67 -152 67c-151 0 -244 -115 -244 -298s89 -301 239 -301c59 0 115 18 147 50v205h-157v39h201v-261c-41 -44 -109 -75 -195 -75c-169 0 -283 133 -283 343zM401 716c-52 0 -78 57 -118 57
c-22 0 -37 -23 -42 -57h-28c3 45 26 92 71 92c52 0 77 -56 118 -56c21 0 37 22 42 56h28c-3 -44 -26 -92 -71 -92z" />
    <glyph glyph-name="uni00670303" horiz-adv-x="487" 
d="M94 -94c0 -60 58 -101 160 -101c108 0 177 61 177 121c0 53 -39 73 -111 73h-103c-10 0 -35 2 -60 8c-44 -30 -63 -67 -63 -101zM52 -98c0 42 27 84 71 116v4c-24 14 -42 40 -42 77c0 43 31 73 52 88v4c-30 26 -60 74 -60 132c0 99 75 169 169 169c26 0 48 -6 63 -12h163
v-37h-112c31 -27 53 -70 53 -121c0 -98 -73 -169 -167 -169c-27 0 -58 7 -80 20c-21 -17 -39 -37 -39 -69c0 -35 20 -63 92 -63h103c108 0 158 -34 158 -110c0 -83 -89 -162 -227 -162c-121 0 -197 52 -197 133zM242 188c66 0 124 54 124 135s-56 133 -124 133
s-125 -51 -125 -133c0 -81 58 -135 125 -135zM109 581c3 43 21 89 69 89s76 -55 111 -55c21 0 33 21 37 55h30c-3 -42 -21 -89 -68 -89c-49 0 -75 55 -111 55c-22 0 -34 -20 -38 -55h-30z" />
    <glyph glyph-name="iogonek.d" horiz-adv-x="229" 
d="M92 0v480h44v-480c-32 -34 -61 -73 -61 -116c0 -34 24 -52 49 -52c17 0 29 4 43 14l16 -26c-15 -13 -44 -23 -65 -23c-46 0 -81 27 -81 81c0 51 33 90 62 122h-7z" />
    <glyph glyph-name="I.a" horiz-adv-x="313" 
d="M43 0v40h90v579h-90v40h225v-40h-89v-579h89v-40h-225z" />
    <glyph glyph-name="Igrave.a" horiz-adv-x="313" 
d="M43 0v40h90v579h-90v40h225v-40h-89v-579h89v-40h-225zM153 709l-109 106h58l92 -106h-41z" />
    <glyph glyph-name="Iacute.a" horiz-adv-x="313" 
d="M43 0v40h90v579h-90v40h225v-40h-89v-579h89v-40h-225zM270 815l-110 -106h-40l92 106h58z" />
    <glyph glyph-name="Icircumflex.a" horiz-adv-x="313" 
d="M43 0v40h90v579h-90v40h225v-40h-89v-579h89v-40h-225zM80 709h-40l96 106h42l96 -106h-40l-75 72h-4z" />
    <glyph glyph-name="Itilde.a" horiz-adv-x="313" 
d="M43 0v40h90v579h-90v40h225v-40h-89v-579h89v-40h-225zM215 716c-52 0 -77 57 -118 57c-21 0 -37 -23 -41 -57h-29c3 45 26 92 71 92c52 0 78 -56 118 -56c22 0 38 22 42 56h28c-3 -44 -26 -92 -71 -92z" />
    <glyph glyph-name="Idieresis.a" horiz-adv-x="313" 
d="M43 0v40h90v579h-90v40h225v-40h-89v-579h89v-40h-225zM78 725c-21 0 -37 14 -37 36c0 23 16 37 37 37s37 -14 37 -37c0 -22 -16 -36 -37 -36zM236 725c-21 0 -37 14 -37 36c0 23 16 37 37 37c20 0 36 -14 36 -37c0 -22 -16 -36 -36 -36z" />
    <glyph glyph-name="Imacron.a" horiz-adv-x="313" 
d="M43 0v40h90v579h-90v40h225v-40h-89v-579h89v-40h-225zM43 734v36h228v-36h-228z" />
    <glyph glyph-name="Idotaccent.a" horiz-adv-x="313" 
d="M43 0v40h90v579h-90v40h225v-40h-89v-579h89v-40h-225zM157 721c-22 0 -41 16 -41 41c0 23 19 39 41 39s40 -16 40 -39c0 -25 -18 -41 -40 -41z" />
    <glyph glyph-name="uni01CF.a" horiz-adv-x="313" 
d="M43 0v40h90v579h-90v40h225v-40h-89v-579h89v-40h-225zM234 815h40l-96 -106h-42l-96 106h40l75 -72h4z" />
    <glyph glyph-name="uni1EC8.a" horiz-adv-x="313" 
d="M43 0v40h90v579h-90v40h225v-40h-89v-579h89v-40h-225zM133 702l-8 27c36 11 63 26 63 54c0 31 -31 46 -85 48l4 32c66 -2 120 -24 120 -74c0 -52 -46 -74 -94 -87z" />
    <glyph glyph-name="uni1ECA.a" horiz-adv-x="313" 
d="M43 0v40h90v579h-90v40h225v-40h-89v-579h89v-40h-225zM159 -194c-22 0 -39 16 -39 41c0 23 17 39 39 39c21 0 38 -16 38 -39c0 -25 -17 -41 -38 -41z" />
    <glyph glyph-name="Iogonek.a" horiz-adv-x="313" 
d="M43 0v40h90v579h-90v40h225v-40h-89v-579h89v-40h-83c-43 -32 -68 -75 -68 -116c0 -35 25 -52 51 -52c17 0 29 4 43 14l16 -27c-15 -13 -43 -24 -65 -24c-47 0 -84 27 -84 82c0 50 31 94 65 123h-100z" />
    <glyph glyph-name="a.a" horiz-adv-x="544" 
d="M99 239c0 -127 56 -212 158 -212c53 0 100 28 151 79v285c-51 45 -93 62 -140 62c-96 0 -169 -93 -169 -214zM52 239c0 155 99 253 214 253c57 0 97 -21 142 -58h2l3 46h39v-480h-38l-4 62h-3c-39 -39 -92 -74 -156 -74c-121 0 -199 89 -199 251z" />
    <glyph glyph-name="agrave.a" horiz-adv-x="544" 
d="M99 239c0 -127 56 -212 158 -212c53 0 100 28 151 79v285c-51 45 -93 62 -140 62c-96 0 -169 -93 -169 -214zM52 239c0 155 99 253 214 253c57 0 97 -21 142 -58h2l3 46h39v-480h-38l-4 62h-3c-39 -39 -92 -74 -156 -74c-121 0 -199 89 -199 251zM291 572l-107 136h53
l91 -136h-37z" />
    <glyph glyph-name="aacute.a" horiz-adv-x="544" 
d="M99 239c0 -127 56 -212 158 -212c53 0 100 28 151 79v285c-51 45 -93 62 -140 62c-96 0 -169 -93 -169 -214zM52 239c0 155 99 253 214 253c57 0 97 -21 142 -58h2l3 46h39v-480h-38l-4 62h-3c-39 -39 -92 -74 -156 -74c-121 0 -199 89 -199 251zM361 708l-106 -136h-38
l92 136h52z" />
    <glyph glyph-name="acircumflex.a" horiz-adv-x="544" 
d="M99 239c0 -127 56 -212 158 -212c53 0 100 28 151 79v285c-51 45 -93 62 -140 62c-96 0 -169 -93 -169 -214zM52 239c0 155 99 253 214 253c57 0 97 -21 142 -58h2l3 46h39v-480h-38l-4 62h-3c-39 -39 -92 -74 -156 -74c-121 0 -199 89 -199 251zM159 572l94 136h39
l94 -136h-36l-75 99h-4l-75 -99h-37z" />
    <glyph glyph-name="atilde.a" horiz-adv-x="544" 
d="M99 239c0 -127 56 -212 158 -212c53 0 100 28 151 79v285c-51 45 -93 62 -140 62c-96 0 -169 -93 -169 -214zM52 239c0 155 99 253 214 253c57 0 97 -21 142 -58h2l3 46h39v-480h-38l-4 62h-3c-39 -39 -92 -74 -156 -74c-121 0 -199 89 -199 251zM149 581
c3 43 21 89 69 89s76 -55 111 -55c21 0 33 21 37 55h31c-3 -42 -22 -89 -69 -89c-49 0 -75 55 -111 55c-22 0 -33 -20 -38 -55h-30z" />
    <glyph glyph-name="adieresis.a" horiz-adv-x="544" 
d="M99 239c0 -127 56 -212 158 -212c53 0 100 28 151 79v285c-51 45 -93 62 -140 62c-96 0 -169 -93 -169 -214zM52 239c0 155 99 253 214 253c57 0 97 -21 142 -58h2l3 46h39v-480h-38l-4 62h-3c-39 -39 -92 -74 -156 -74c-121 0 -199 89 -199 251zM194 598
c-21 0 -37 16 -37 37c0 20 16 36 37 36s37 -16 37 -36c0 -21 -16 -37 -37 -37zM352 598c-21 0 -37 16 -37 37c0 20 16 36 37 36c20 0 36 -16 36 -36c0 -21 -16 -37 -36 -37z" />
    <glyph glyph-name="amacron.a" horiz-adv-x="544" 
d="M99 239c0 -127 56 -212 158 -212c53 0 100 28 151 79v285c-51 45 -93 62 -140 62c-96 0 -169 -93 -169 -214zM52 239c0 155 99 253 214 253c57 0 97 -21 142 -58h2l3 46h39v-480h-38l-4 62h-3c-39 -39 -92 -74 -156 -74c-121 0 -199 89 -199 251zM159 606v36h227v-36
h-227z" />
    <glyph glyph-name="abreve.a" horiz-adv-x="544" 
d="M99 239c0 -127 56 -212 158 -212c53 0 100 28 151 79v285c-51 45 -93 62 -140 62c-96 0 -169 -93 -169 -214zM52 239c0 155 99 253 214 253c57 0 97 -21 142 -58h2l3 46h39v-480h-38l-4 62h-3c-39 -39 -92 -74 -156 -74c-121 0 -199 89 -199 251zM273 576
c-82 0 -113 68 -119 119h33c6 -43 32 -87 86 -87c53 0 80 44 86 87h33c-6 -51 -38 -119 -119 -119z" />
    <glyph glyph-name="aring.a" horiz-adv-x="544" 
d="M99 239c0 -127 56 -212 158 -212c53 0 100 28 151 79v285c-51 45 -93 62 -140 62c-96 0 -169 -93 -169 -214zM52 239c0 155 99 253 214 253c57 0 97 -21 142 -58h2l3 46h39v-480h-38l-4 62h-3c-39 -39 -92 -74 -156 -74c-121 0 -199 89 -199 251zM273 539
c-47 0 -83 35 -83 86c0 52 36 87 83 87s82 -35 82 -87c0 -51 -35 -86 -82 -86zM273 565c29 0 52 24 52 60c0 37 -23 61 -52 61s-53 -24 -53 -61c0 -36 24 -60 53 -60z" />
    <glyph glyph-name="uni01CE.a" horiz-adv-x="544" 
d="M99 239c0 -127 56 -212 158 -212c53 0 100 28 151 79v285c-51 45 -93 62 -140 62c-96 0 -169 -93 -169 -214zM52 239c0 155 99 253 214 253c57 0 97 -21 142 -58h2l3 46h39v-480h-38l-4 62h-3c-39 -39 -92 -74 -156 -74c-121 0 -199 89 -199 251zM253 572l-94 136h37
l75 -99h4l75 99h36l-94 -136h-39z" />
    <glyph glyph-name="uni1EA1.a" horiz-adv-x="544" 
d="M99 239c0 -127 56 -212 158 -212c53 0 100 28 151 79v285c-51 45 -93 62 -140 62c-96 0 -169 -93 -169 -214zM52 239c0 155 99 253 214 253c57 0 97 -21 142 -58h2l3 46h39v-480h-38l-4 62h-3c-39 -39 -92 -74 -156 -74c-121 0 -199 89 -199 251zM274 -194
c-22 0 -38 16 -38 41c0 23 16 39 38 39c21 0 38 -16 38 -39c0 -25 -17 -41 -38 -41z" />
    <glyph glyph-name="uni1EA3.a" horiz-adv-x="544" 
d="M99 239c0 -127 56 -212 158 -212c53 0 100 28 151 79v285c-51 45 -93 62 -140 62c-96 0 -169 -93 -169 -214zM52 239c0 155 99 253 214 253c57 0 97 -21 142 -58h2l3 46h39v-480h-38l-4 62h-3c-39 -39 -92 -74 -156 -74c-121 0 -199 89 -199 251zM249 551l-8 26
c36 11 63 26 63 55c0 30 -31 46 -85 48l4 32c66 -3 120 -24 120 -75c0 -52 -46 -73 -94 -86z" />
    <glyph glyph-name="uni1EA5.a" horiz-adv-x="544" 
d="M99 239c0 -127 56 -212 158 -212c53 0 100 28 151 79v285c-51 45 -93 62 -140 62c-96 0 -169 -93 -169 -214zM52 239c0 155 99 253 214 253c57 0 97 -21 142 -58h2l3 46h39v-480h-38l-4 62h-3c-39 -39 -92 -74 -156 -74c-121 0 -199 89 -199 251zM170 572l83 114h39
l84 -114h-36l-65 78h-4l-66 -78h-35zM351 637l77 111h46l-90 -111h-33z" />
    <glyph glyph-name="uni1EA7.a" horiz-adv-x="544" 
d="M99 239c0 -127 56 -212 158 -212c53 0 100 28 151 79v285c-51 45 -93 62 -140 62c-96 0 -169 -93 -169 -214zM52 239c0 155 99 253 214 253c57 0 97 -21 142 -58h2l3 46h39v-480h-38l-4 62h-3c-39 -39 -92 -74 -156 -74c-121 0 -199 89 -199 251zM170 572l83 114h39
l84 -114h-36l-65 78h-4l-66 -78h-35zM369 748l76 -111h-32l-91 111h47z" />
    <glyph glyph-name="uni1EA9.a" horiz-adv-x="544" 
d="M99 239c0 -127 56 -212 158 -212c53 0 100 28 151 79v285c-51 45 -93 62 -140 62c-96 0 -169 -93 -169 -214zM52 239c0 155 99 253 214 253c57 0 97 -21 142 -58h2l3 46h39v-480h-38l-4 62h-3c-39 -39 -92 -74 -156 -74c-121 0 -199 89 -199 251zM170 572l83 114h39
l84 -114h-36l-65 78h-4l-66 -78h-35zM376 628l-9 25c29 10 50 23 50 46c0 30 -23 44 -71 46l3 29c59 -2 106 -22 106 -70c0 -46 -42 -64 -79 -76z" />
    <glyph glyph-name="uni1EAB.a" horiz-adv-x="544" 
d="M99 239c0 -127 56 -212 158 -212c53 0 100 28 151 79v285c-51 45 -93 62 -140 62c-96 0 -169 -93 -169 -214zM52 239c0 155 99 253 214 253c57 0 97 -21 142 -58h2l3 46h39v-480h-38l-4 62h-3c-39 -39 -92 -74 -156 -74c-121 0 -199 89 -199 251zM162 570l90 100h41
l91 -100h-36l-73 69h-4l-73 -69h-36zM180 706h-29c3 38 24 77 71 77c49 0 67 -45 102 -45c22 0 37 15 41 45h29c-3 -38 -24 -77 -71 -77c-48 0 -67 45 -102 45c-21 0 -37 -15 -41 -45z" />
    <glyph glyph-name="uni1EAD.a" horiz-adv-x="544" 
d="M99 239c0 -127 56 -212 158 -212c53 0 100 28 151 79v285c-51 45 -93 62 -140 62c-96 0 -169 -93 -169 -214zM52 239c0 155 99 253 214 253c57 0 97 -21 142 -58h2l3 46h39v-480h-38l-4 62h-3c-39 -39 -92 -74 -156 -74c-121 0 -199 89 -199 251zM159 572l94 136h39
l94 -136h-36l-75 99h-4l-75 -99h-37zM274 -194c-22 0 -38 16 -38 41c0 23 16 39 38 39c21 0 38 -16 38 -39c0 -25 -17 -41 -38 -41z" />
    </font>
</defs>
</svg>
